<?xml version="1.0" standalone="no"?> 
<!DOCTYPE svg PUBLIC "-//W3C//DTD SVG 1.1//EN" "http://www.w3.org/Graphics/SVG/1.1/DTD/svg11.dtd" >
<svg xmlns="http://www.w3.org/2000/svg">
<defs>
  <font id="bc-font" horiz-adv-x="39">
    <font-face font-family="bc-font"
      units-per-em="500" ascent="500"
      descent="0" />
    <missing-glyph horiz-adv-x="0" />
    <glyph glyph-name="activity"
      unicode="&#xF101;"
      horiz-adv-x="500" d=" M316.6666666666667 118.75L200 462.5C197.9166666666667 475 183.3333333333334 481.25 172.9166666666667 479.1666666666667C166.6666666666667 477.0833333333333 158.3333333333333 468.75 156.25 462.5L95.8333333333333 272.9166666666667H22.9166666666667C8.3333333333333 272.9166666666667 0 264.5833333333334 0 250C0 235.4166666666667 8.3333333333333 227.0833333333334 22.9166666666667 227.0833333333334H114.5833333333333C122.9166666666667 227.0833333333334 133.3333333333334 233.3333333333334 135.4166666666667 243.7500000000001L183.3333333333334 383.3333333333334L300 37.5000000000001C304.1666666666667 27.0833333333334 316.6666666666667 18.7500000000001 329.1666666666667 22.9166666666667C335.4166666666667 25.0000000000001 339.5833333333333 29.1666666666667 343.75 37.5000000000001L408.3333333333333 227.0833333333334H481.25C495.8333333333333 227.0833333333334 504.1666666666667 235.4166666666667 504.1666666666667 250C504.1666666666667 264.5833333333334 495.8333333333334 272.9166666666667 481.25 272.9166666666667H389.5833333333334C381.2500000000001 272.9166666666667 370.8333333333335 266.6666666666667 368.7500000000001 256.25L316.6666666666667 118.75z" />
    <glyph glyph-name="addedtolist"
      unicode="&#xF102;"
      horiz-adv-x="500" d=" M496.09375 283.203125C491.203125 290.046875 485.34375 292 479.484375 292C472.6406250000001 292 464.8281250000001 290.046875 458 283.203125L303.703125 126.953125L246.078125 187.5C235.328125 198.25 220.6875 198.25 212.875 187.5C206.03125 183.59375 204.078125 176.75 204.078125 170.890625S206.03125 156.2343750000001 212.875 150.3750000000001L290.03125 71.2656250000001C293.9375 66.3750000000001 299.796875 62.4687500000001 306.640625 62.4687500000001C312.5 62.4687500000001 318.359375 64.4218750000001 323.25 71.2656250000001L491.21875 246.0781250000001C496.1093749999999 249.9843750000001 498.0624999999999 255.8437500000001 498.0624999999999 264.6406250000001C501.9687499999999 272.4531250000001 500.0156249999999 279.2968750000001 496.1093749999999 283.2031250000001zM145.515625 209.953125H29.296875C12.6875 209.953125 0 198.234375 0 181.6250000000001S12.703125 152.3281250000001 29.296875 152.3281250000001H150.390625C170.90625 156.2343750000001 174.8125 170.890625 174.8125 181.6250000000001C174.8125 200.1875 165.046875 209.953125 145.515625 209.953125zM29.296875 262.6875H270.5156250000001C287.125 262.6875 299.8125000000001 275.390625 299.8125000000001 291.984375S287.1093750000001 321.28125 270.5156250000001 321.28125H29.296875C12.6875 321.28125 0 308.578125 0 293.9375C0 275.375 12.703125 262.6875 29.296875 262.6875zM29.296875 378.90625L270.5156250000001 376.953125C287.125 376.953125 299.8125000000001 389.65625 299.8125000000001 406.25S287.1093750000001 435.546875 270.5156250000001 435.546875H29.296875C12.6875 435.546875 0 422.84375 0 406.25S10.75 378.90625 29.296875 378.90625z" />
    <glyph glyph-name="addtolist"
      unicode="&#xF103;"
      horiz-adv-x="500" d=" M145.515625 209.953125H29.296875C12.6875 209.953125 0 198.234375 0 181.6250000000001S12.703125 152.3281250000001 29.296875 152.3281250000001H150.390625C170.90625 156.2343750000001 174.8125 170.890625 174.8125 181.6250000000001C174.8125 200.1875 165.046875 209.953125 145.515625 209.953125zM29.296875 262.6875H270.5156250000001C287.125 262.6875 299.8125000000001 275.390625 299.8125000000001 291.984375S287.1093750000001 321.28125 270.5156250000001 321.28125H29.296875C12.6875 321.28125 0 308.578125 0 293.9375C0 275.375 12.703125 262.6875 29.296875 262.6875zM29.296875 378.90625L270.5156250000001 376.953125C287.125 376.953125 299.8125000000001 389.65625 299.8125000000001 406.25S287.1093750000001 435.546875 270.5156250000001 435.546875H29.296875C12.6875 435.546875 0 422.84375 0 406.25S10.75 378.90625 29.296875 378.90625zM470.703125 204.09375H406.25V264.640625C406.25 281.25 393.546875 291.984375 376.953125 291.984375S347.65625 279.28125 347.65625 264.640625V204.09375H283.203125C266.59375 204.09375 253.90625 191.3906250000001 253.90625 176.75S266.609375 150.3750000000001 283.203125 150.3750000000001H347.65625V89.8281250000001C347.65625 73.2187500000001 360.359375 62.4843750000001 376.953125 62.4843750000001S406.25 75.1875 406.25 89.8281250000001V150.3750000000001H470.703125C487.3125 150.3750000000001 500 162.0937500000001 500 176.75S487.296875 204.09375 470.703125 204.09375z" />
    <glyph glyph-name="airplay"
      unicode="&#xF104;"
      horiz-adv-x="500" d=" M364.5833333333333 20.8333333333334H135.4166666666667C120.8333333333333 20.8333333333334 112.5 29.1666666666667 112.5 43.7500000000001C112.5 47.9166666666667 114.5833333333333 54.1666666666667 116.6666666666667 58.3333333333334L231.2500000000001 195.8333333333334C239.5833333333334 204.1666666666667 254.1666666666667 208.3333333333334 262.5 197.9166666666667L264.5833333333333 195.8333333333334L379.1666666666667 58.3333333333334C387.5 50.0000000000001 385.4166666666668 33.3333333333334 377.0833333333333 27.0833333333334C375 22.9166666666667 368.75 20.8333333333334 364.5833333333333 20.8333333333334zM250 143.75L183.3333333333334 66.6666666666667H312.5L250 143.75zM431.25 112.5H408.3333333333333C393.75 112.5 385.4166666666666 120.8333333333333 385.4166666666666 135.4166666666667S393.7499999999999 158.3333333333334 408.3333333333333 158.3333333333334H431.25C445.8333333333333 158.3333333333334 454.1666666666666 166.6666666666668 454.1666666666666 181.2500000000001V410.4166666666667C454.1666666666666 425 445.8333333333334 433.3333333333334 431.25 433.3333333333334H68.75C54.1666666666667 433.3333333333334 45.8333333333333 425 45.8333333333333 410.4166666666667V181.2500000000001C45.8333333333333 166.6666666666668 54.1666666666667 158.3333333333334 68.75 158.3333333333334H91.6666666666667C106.25 158.3333333333334 114.5833333333333 150.0000000000001 114.5833333333333 135.4166666666667S104.1666666666667 112.5 91.6666666666667 112.5H68.75C29.1666666666667 112.5 0 141.6666666666666 0 181.25V410.4166666666667C0 450 29.1666666666667 479.1666666666667 68.75 479.1666666666667H433.3333333333333C470.8333333333333 479.1666666666667 500 450 500 410.4166666666667V181.25C500 141.6666666666667 470.8333333333333 112.5 431.25 112.5z" />
    <glyph glyph-name="alert-circle-full"
      unicode="&#xF105;"
      horiz-adv-x="500" d=" M250 0C112.296875 0 0 112.3125 0 250S112.3125 500 250 500C387.7031250000001 500 500 387.6875 500 250S387.6875 0 250 0zM266.609375 172.84375C258.796875 181.640625 244.140625 181.640625 235.359375 172.84375C227.546875 165.03125 227.546875 150.3750000000001 235.359375 141.59375C244.15625 133.78125 258.796875 133.78125 266.609375 141.59375C275.40625 150.390625 275.40625 165.03125 266.609375 172.84375zM227.546875 316.40625V224.609375C227.546875 212.890625 237.3125 202.140625 250.0156250000001 202.140625S272.484375 212.890625 272.484375 224.609375V316.40625C272.484375 329.109375 262.71875 339.84375 250.0156250000001 339.84375S227.546875 329.09375 227.546875 316.40625z" />
    <glyph glyph-name="alert-circle"
      unicode="&#xF106;"
      horiz-adv-x="500" d=" M73.25 73.234375C-25.390625 170.890625 -25.390625 329.09375 71.296875 426.75C167 525.390625 325.203125 527.34375 422.859375 428.703125L424.8125 426.75C522.46875 329.09375 525.40625 174.796875 426.765625 75.1875C329.109375 -25.40625 174.8125 -22.46875 73.25 73.234375C75.203125 73.234375 75.203125 73.234375 73.25 73.234375zM45.90625 250C45.90625 137.6875 135.75 45.8906249999999 250.0156250000001 45.8906249999999S454.125 135.734375 454.125 250C454.125 364.265625 362.328125 452.15625 250.015625 452.15625S45.90625 360.359375 45.90625 250zM233.40625 166.984375C224.609375 174.796875 224.609375 189.453125 233.40625 198.234375C241.21875 206.046875 255.8750000000001 206.046875 264.6562500000001 198.234375C272.4687500000001 189.4375000000001 272.4687500000001 174.796875 264.6562500000001 166.984375C260.7500000000001 162.0937500000001 255.8593750000001 160.1406250000001 248.0468750000001 160.1406250000001C244.1406250000001 160.1406250000001 237.2968750000001 162.0937500000001 233.3906250000001 166.984375zM227.546875 250V337.890625C227.546875 352.546875 235.359375 360.359375 250.0156250000001 360.359375S272.484375 352.546875 272.484375 337.890625V250C272.484375 235.34375 264.671875 227.53125 250.0156250000001 227.53125S227.546875 235.34375 227.546875 250.0000000000001z" />
    <glyph glyph-name="alert-full"
      unicode="&#xF107;"
      horiz-adv-x="500" d=" M193.359375 437.5C212.890625 468.75 253.90625 479.5 283.203125 458.015625C292 452.15625 299.8125 446.296875 304.6875 437.5L489.2656250000001 128.90625C501.9687500000001 108.390625 501.9687500000001 83 489.2656250000001 64.453125C477.5468750000001 43.9375 456.0625000000001 31.25 433.5937500000001 31.25H62.5000000000001C40.0312500000001 31.25 18.5468750000001 43.953125 5.8593750000001 64.453125C-5.8593749999999 84.96875 -3.9062499999999 110.359375 5.8593750000001 128.90625zM235.359375 145.5C244.1562500000001 137.6875 258.7968750000001 137.6875 266.6093750000001 145.5C275.40625 154.296875 275.40625 168.9375 266.6093750000001 176.75C258.7968750000001 185.546875 244.1406250000001 185.546875 235.3593750000001 176.75C227.5468750000001 168.9375 227.5468750000001 156.2343750000001 235.3593750000001 145.5zM227.546875 314.453125V227.53125C227.546875 214.8281250000001 237.3125 204.09375 248.0625000000001 204.09375S268.578125 214.84375 268.578125 227.53125V314.453125C268.578125 327.15625 258.8125 337.890625 248.0625 337.890625S227.546875 327.140625 227.546875 314.453125z" />
    <glyph glyph-name="alert-octagon"
      unicode="&#xF108;"
      horiz-adv-x="500" d=" M156.25 2.0833333333334C150 2.0833333333334 145.8333333333333 4.1666666666667 139.5833333333334 8.3333333333334L6.25 141.6666666666668C2.0833333333333 145.8333333333334 0 152.0833333333334 0 158.3333333333334V343.75C0 350 2.0833333333333 354.1666666666667 6.25 360.4166666666667L139.5833333333334 493.75C143.75 497.9166666666667 150 500 156.25 500H345.8333333333334C352.0833333333334 500 356.25 497.9166666666667 362.5 493.75L495.8333333333334 360.4166666666667C497.9166666666666 358.3333333333334 500 350 500 343.75V156.25C500 150 497.9166666666666 145.8333333333334 493.7499999999999 139.5833333333333L360.4166666666666 6.2499999999999C354.1666666666667 2.0833333333334 350 0 343.75 0H156.25V2.0833333333334zM45.8333333333333 335.4166666666667V166.6666666666667L166.6666666666667 47.9166666666667H337.5L458.3333333333333 168.7500000000001V335.4166666666668L333.3333333333333 454.1666666666667H166.6666666666667L45.8333333333333 335.4166666666667zM233.3333333333333 166.6666666666667C225 175 225 189.5833333333334 233.3333333333333 197.9166666666667C241.6666666666667 206.25 256.25 206.25 264.5833333333333 197.9166666666667C272.9166666666667 189.5833333333334 272.9166666666667 175 264.5833333333333 166.6666666666667C260.4166666666667 162.5000000000001 256.25 160.4166666666667 247.9166666666667 160.4166666666667S239.5833333333333 162.5000000000001 233.3333333333333 166.6666666666667L233.3333333333333 166.6666666666667zM227.0833333333333 252.0833333333334V341.6666666666667C227.0833333333333 356.25 235.4166666666667 364.5833333333334 250 364.5833333333334S272.9166666666667 356.25 272.9166666666667 341.6666666666667V252.0833333333334C272.9166666666667 237.5000000000001 264.5833333333333 229.1666666666668 250 229.1666666666668S227.0833333333333 237.5 227.0833333333333 252.0833333333334z" />
    <glyph glyph-name="alert-triangle"
      unicode="&#xF109;"
      horiz-adv-x="500" d=" M64.5833333333333 31.25C39.5833333333333 31.25 20.8333333333333 43.7500000000001 8.3333333333333 64.5833333333334C-2.0833333333333 83.3333333333334 -2.0833333333333 110.4166666666667 8.3333333333333 129.1666666666668L193.75 437.5C212.5 468.75 252.0833333333334 479.1666666666667 285.4166666666667 458.3333333333333C293.75 454.1666666666667 300 445.8333333333333 306.25 437.5L491.6666666666667 129.1666666666667C502.0833333333333 110.4166666666667 502.0833333333333 83.3333333333334 491.6666666666667 64.5833333333333S458.3333333333333 31.2499999999999 435.4166666666667 31.2499999999999H64.5833333333333zM231.25 412.5L45.8333333333333 108.3333333333333C41.6666666666667 102.0833333333333 41.6666666666667 93.75 45.8333333333333 87.5C50 81.25 56.25 77.0833333333333 64.5833333333333 77.0833333333333H435.4166666666667C443.75 77.0833333333333 450 81.25 454.1666666666666 87.5C458.3333333333333 93.75 458.3333333333333 102.0833333333333 454.1666666666666 108.3333333333333L268.75 412.5C264.5833333333333 418.75 256.25 422.9166666666667 250 422.9166666666667C241.6666666666667 425 235.4166666666667 418.75 231.25 412.5zM235.4166666666667 147.9166666666668C227.0833333333333 156.25 227.0833333333333 168.7500000000001 235.4166666666667 179.1666666666668L235.4166666666667 179.1666666666668C243.75 187.5000000000001 256.25 187.5000000000001 266.6666666666667 179.1666666666668C275 170.8333333333334 275 158.3333333333334 266.6666666666667 147.9166666666668L266.6666666666667 147.9166666666668C256.25 137.5000000000001 243.75 137.5000000000001 235.4166666666667 147.9166666666668zM229.1666666666667 227.0833333333334V314.5833333333334C229.1666666666667 327.0833333333333 237.5 335.4166666666667 250 335.4166666666667C262.5 335.4166666666667 270.8333333333333 327.0833333333333 270.8333333333333 314.5833333333334V227.0833333333333C270.8333333333333 214.5833333333333 262.5 206.25 250 206.25C237.5 204.1666666666667 229.1666666666667 214.5833333333334 229.1666666666667 227.0833333333334z" />
    <glyph glyph-name="alert"
      unicode="&#xF10A;"
      horiz-adv-x="500" d=" M64.453125 31.25C40.03125 31.25 20.5 43.953125 8.78125 64.453125C-1.96875 83.015625 -1.96875 110.359375 8.78125 128.90625L193.359375 437.5C212.890625 468.75 251.953125 479.5 285.15625 458.015625C293.953125 454.109375 299.8125 446.296875 306.640625 437.5L491.2187500000001 128.90625C501.9687500000001 110.34375 501.9687500000001 83 491.2187500000001 64.453125C481.4531250000001 45.890625 458.0156250000001 31.25 435.5468750000001 31.25zM231.453125 412.109375L45.90625 108.390625C42 102.53125 42 93.7343750000001 45.90625 87.8750000000001C49.8125 81.0312500000001 56.65625 77.1250000000001 64.46875 77.1250000000001H435.5625C443.375 77.1250000000001 450.21875 81.0312500000001 454.125 87.8750000000001C458.03125 93.7343750000001 458.03125 102.53125 454.125 108.390625L268.578125 412.109375C264.671875 418.953125 255.8750000000001 422.859375 250.0156250000001 422.859375C241.21875 424.8125 235.359375 418.953125 231.453125 412.109375zM235.359375 147.453125C227.546875 156.25 227.546875 168.9375 235.359375 178.703125C244.1562500000001 187.5 255.8750000000001 187.5 266.6093750000001 178.703125C275.40625 170.890625 275.40625 158.1875000000001 266.6093750000001 147.453125C255.8593750000001 137.6875 244.1406250000001 137.6875 235.3593750000001 147.453125zM229.5 227.53125V314.453125C229.5 327.15625 237.3125 334.96875 250.0156250000001 334.96875S270.53125 327.15625 270.53125 314.453125V227.53125C270.53125 214.8281250000001 262.71875 206.046875 250.0156250000001 206.046875C237.3125 204.09375 229.5 214.84375 229.5 227.53125z" />
    <glyph glyph-name="align-center"
      unicode="&#xF10B;"
      horiz-adv-x="500" d=" M100 75.0000000000001C85.4166666666667 75.0000000000001 75 85.4166666666667 75 100.0000000000001C75 114.5833333333334 85.4166666666667 125 100 125H400C414.5833333333333 125 425 114.5833333333334 425 100.0000000000001C425 85.4166666666667 414.5833333333333 75.0000000000001 400 75.0000000000001H100zM25 175C10.4166666666667 175 0 185.4166666666667 0 200C0 214.5833333333333 10.4166666666667 225 25 225H475C489.5833333333333 225 500 214.5833333333333 500 200C500 185.4166666666667 489.5833333333333 175 475 175H25zM100 275C85.4166666666667 275 75 285.4166666666667 75 300C75 314.5833333333333 85.4166666666667 325 100 325H400C414.5833333333333 325 425 314.5833333333333 425 300C425 285.4166666666667 414.5833333333333 275 400 275H100zM25 375C10.4166666666667 375 0 385.4166666666667 0 400S10.4166666666667 425 25 425H475C489.5833333333333 425 500 414.5833333333334 500 400S489.5833333333333 375 475 375H25z" />
    <glyph glyph-name="align-justify"
      unicode="&#xF10C;"
      horiz-adv-x="500" d=" M25 75.0000000000001C10.4166666666667 75.0000000000001 0 85.4166666666667 0 100.0000000000001C0 114.5833333333334 10.4166666666667 125 25 125H475C489.5833333333333 125 500 114.5833333333334 500 100.0000000000001C500 85.4166666666667 489.5833333333333 75.0000000000001 475 75.0000000000001H25zM25 175C10.4166666666667 175 0 185.4166666666667 0 200C0 214.5833333333333 10.4166666666667 225 25 225H475C489.5833333333333 225 500 214.5833333333333 500 200C500 185.4166666666667 489.5833333333333 175 475 175H25zM25 275C10.4166666666667 275 0 285.4166666666667 0 300C0 314.5833333333334 10.4166666666667 325 25 325H475C489.5833333333333 325 500 314.5833333333334 500 300C500 285.4166666666668 489.5833333333333 275 475 275H25zM25 375C10.4166666666667 375 0 385.4166666666667 0 400S10.4166666666667 425 25 425H475C489.5833333333333 425 500 414.5833333333334 500 400S489.5833333333333 375 475 375H25z" />
    <glyph glyph-name="align-left"
      unicode="&#xF10D;"
      horiz-adv-x="500" d=" M25 75.0000000000001C10.4166666666667 75.0000000000001 0 85.4166666666667 0 100.0000000000001C0 114.5833333333334 10.4166666666667 125 25 125H375C389.5833333333333 125 400 114.5833333333334 400 100.0000000000001C400 85.4166666666667 389.5833333333333 75.0000000000001 375 75.0000000000001H25zM25 175C10.4166666666667 175 0 185.4166666666667 0 200C0 214.5833333333333 10.4166666666667 225 25 225H475C489.5833333333333 225 500 214.5833333333333 500 200C500 185.4166666666667 489.5833333333333 175 475 175H25zM25 275C10.4166666666667 275 0 285.4166666666667 0 300C0 314.5833333333334 10.4166666666667 325 25 325H375C389.5833333333333 325 400 314.5833333333334 400 300C400 285.4166666666668 389.5833333333333 275 375 275H25zM25 375C10.4166666666667 375 0 385.4166666666667 0 400S10.4166666666667 425 25 425H475C489.5833333333333 425 500 414.5833333333334 500 400S489.5833333333333 375 475 375H25z" />
    <glyph glyph-name="align-right"
      unicode="&#xF10E;"
      horiz-adv-x="500" d=" M125 75.0000000000001C110.4166666666667 75.0000000000001 100 85.4166666666667 100 100.0000000000001C100 114.5833333333334 110.4166666666667 125 125 125H475C489.5833333333333 125 500 114.5833333333334 500 100.0000000000001C500 85.4166666666667 489.5833333333333 75.0000000000001 475 75.0000000000001H125zM25 175C10.4166666666667 175 0 185.4166666666667 0 200C0 214.5833333333333 10.4166666666667 225 25 225H475C489.5833333333333 225 500 214.5833333333333 500 200C500 185.4166666666667 489.5833333333333 175 475 175H25zM125 275C110.4166666666667 275 100 285.4166666666667 100 300C100 314.5833333333333 110.4166666666667 325 125 325H475C489.5833333333333 325 500 314.5833333333333 500 300C500 285.4166666666667 489.5833333333333 275 475 275H125zM25 375C10.4166666666667 375 0 385.4166666666667 0 400S10.4166666666667 425 25 425H475C489.5833333333333 425 500 414.5833333333334 500 400S489.5833333333333 375 475 375H25z" />
    <glyph glyph-name="anchor"
      unicode="&#xF10F;"
      horiz-adv-x="500" d=" M250 0C110.4166666666667 0 0 110.4166666666667 0 250C0 264.5833333333334 8.3333333333333 272.9166666666667 22.9166666666667 272.9166666666667H91.6666666666667C106.25 272.9166666666667 114.5833333333333 264.5833333333334 114.5833333333333 250S104.1666666666667 227.0833333333334 91.6666666666667 227.0833333333334H47.9166666666667C58.3333333333333 131.2500000000001 133.3333333333333 56.2500000000001 227.0833333333333 47.9166666666667V320.8333333333334C179.1666666666667 333.3333333333334 150 383.3333333333334 160.4166666666667 431.25S225 508.3333333333333 270.8333333333333 497.9166666666667S347.9166666666667 437.5 337.5 387.5C329.1666666666667 356.25 304.1666666666667 331.25 270.8333333333333 320.8333333333334V45.8333333333334C366.6666666666667 56.2500000000001 441.6666666666667 131.2500000000001 450 225.0000000000001H406.25C391.6666666666667 225.0000000000001 383.3333333333333 233.3333333333335 383.3333333333333 247.9166666666667S395.8333333333333 270.8333333333334 408.3333333333333 270.8333333333334H477.0833333333334C491.6666666666667 270.8333333333334 500.0000000000001 262.5 500.0000000000001 247.9166666666667C500 110.4166666666667 389.5833333333333 0 250 0zM250 454.1666666666667C225 454.1666666666667 204.1666666666667 433.3333333333333 204.1666666666667 408.3333333333333S225 362.5 250 362.5S295.8333333333333 383.3333333333333 295.8333333333333 408.3333333333333S275 454.1666666666667 250 454.1666666666667z" />
    <glyph glyph-name="aperture"
      unicode="&#xF110;"
      horiz-adv-x="500" d=" M222.9166666666666 2.0833333333334H220.8333333333333C95.8333333333333 16.6666666666667 0 122.9166666666667 0 250C0 302.0833333333334 16.6666666666667 354.1666666666667 47.9166666666667 397.9166666666667L50 400C56.25 408.3333333333333 66.6666666666667 418.75 72.9166666666667 427.0833333333333C120.8333333333333 472.9166666666667 183.3333333333334 500 250 500C258.3333333333333 500 268.75 500 277.0833333333333 497.9166666666667H279.1666666666667C404.1666666666667 483.3333333333333 500 377.0833333333333 500 250C500 197.9166666666667 483.3333333333333 145.8333333333334 452.0833333333333 102.0833333333333L450 99.9999999999999C443.75 91.6666666666667 433.3333333333333 81.25 427.0833333333333 72.9166666666666C379.1666666666667 27.0833333333334 316.6666666666667 0 250 0C241.6666666666667 0 231.25 0 222.9166666666666 2.0833333333334zM264.5833333333333 45.8333333333334C318.75 50 370.8333333333333 75 408.3333333333333 116.6666666666666L354.1666666666667 204.1666666666667L322.9166666666667 147.9166666666668L322.9166666666667 147.9166666666668L264.5833333333333 45.8333333333334zM214.5833333333334 47.9166666666667L264.5833333333333 137.5000000000001H79.1666666666667C110.4166666666667 91.6666666666667 158.3333333333333 58.3333333333334 214.5833333333334 47.9166666666667L214.5833333333334 47.9166666666667zM433.3333333333333 158.3333333333334C458.3333333333333 208.3333333333334 460.4166666666667 264.5833333333334 441.6666666666667 316.6666666666667H339.5833333333333L370.8333333333333 260.4166666666667L370.8333333333333 260.4166666666667L433.3333333333333 158.3333333333334zM170.8333333333333 250L210.4166666666667 181.25H289.5833333333333L329.1666666666667 250L289.5833333333333 318.75H212.5L170.8333333333333 250zM45.8333333333333 250C45.8333333333333 227.0833333333334 50 204.1666666666667 56.25 181.25H158.3333333333334L127.0833333333334 237.5L127.0833333333334 237.5L66.6666666666667 341.6666666666667C52.0833333333333 310.4166666666667 45.8333333333333 281.25 45.8333333333333 250zM95.8333333333333 381.25L145.8333333333333 295.8333333333334L177.0833333333333 352.0833333333334L177.0833333333333 352.0833333333334L235.4166666666667 454.1666666666667C181.25 450 129.1666666666667 425 95.8333333333333 381.25zM235.4166666666667 364.5833333333334H418.75C389.5833333333334 410.4166666666667 339.5833333333333 441.6666666666667 287.5 450L235.4166666666667 364.5833333333334z" />
    <glyph glyph-name="arrow-down-left"
      unicode="&#xF111;"
      horiz-adv-x="500" d=" M35.4166666666667 0C29.1666666666667 0 20.8333333333333 4.1666666666667 14.5833333333333 6.2500000000001L14.5833333333333 6.2500000000001L14.5833333333333 6.2500000000001L14.5833333333333 6.2500000000001L14.5833333333333 6.2500000000001L14.5833333333333 6.2500000000001C14.5833333333333 6.2500000000001 14.5833333333333 6.2500000000001 10.4166666666667 10.4166666666667L10.4166666666667 10.4166666666667L10.4166666666667 10.4166666666667L10.4166666666667 10.4166666666667L10.4166666666667 10.4166666666667L10.4166666666667 10.4166666666667L10.4166666666667 10.4166666666667L10.4166666666667 10.4166666666667L10.4166666666667 10.4166666666667L10.4166666666667 10.4166666666667L10.4166666666667 10.4166666666667L10.4166666666667 10.4166666666667L10.4166666666667 10.4166666666667L10.4166666666667 10.4166666666667L10.4166666666667 10.4166666666667L10.4166666666667 10.4166666666667L10.4166666666667 10.4166666666667L10.4166666666667 10.4166666666667L10.4166666666667 10.4166666666667L10.4166666666667 10.4166666666667L10.4166666666667 10.4166666666667L10.4166666666667 10.4166666666667L10.4166666666667 10.4166666666667L10.4166666666667 10.4166666666667L10.4166666666667 10.4166666666667L10.4166666666667 10.4166666666667L10.4166666666667 10.4166666666667L10.4166666666667 10.4166666666667L10.4166666666667 10.4166666666667L10.4166666666667 10.4166666666667L10.4166666666667 10.4166666666667L10.4166666666667 10.4166666666667L10.4166666666667 10.4166666666667C0 25 0 31.25 0 35.4166666666667V356.25C0 377.0833333333333 14.5833333333333 391.6666666666667 35.4166666666667 391.6666666666667S70.8333333333333 377.0833333333333 70.8333333333333 356.25V120.8333333333333L439.5833333333333 489.5833333333333C454.1666666666666 504.1666666666667 475 504.1666666666667 489.5833333333333 489.5833333333333C504.1666666666666 475 504.1666666666666 454.1666666666667 489.5833333333333 439.5833333333333L120.8333333333333 70.8333333333333H356.25C377.0833333333333 70.8333333333333 391.6666666666667 56.25 391.6666666666667 35.4166666666667C391.6666666666667 14.5833333333334 379.1666666666667 0 356.25 0H35.4166666666667z" />
    <glyph glyph-name="arrow-down-right"
      unicode="&#xF112;"
      horiz-adv-x="500" d=" M143.75 0C122.9166666666667 0 108.3333333333333 14.5833333333334 108.3333333333333 35.4166666666667C108.3333333333333 56.25 122.9166666666667 70.8333333333333 143.75 70.8333333333333H379.1666666666667L10.4166666666667 439.5833333333333C-4.1666666666667 454.1666666666667 -4.1666666666667 475 10.4166666666667 489.5833333333333S45.8333333333333 504.1666666666667 60.4166666666667 489.5833333333333L429.1666666666666 120.8333333333334V356.25C429.1666666666666 377.0833333333333 443.75 391.6666666666667 464.5833333333333 391.6666666666667C485.4166666666666 391.6666666666667 499.9999999999999 379.1666666666667 499.9999999999999 356.25V35.4166666666667C499.9999999999999 14.5833333333334 485.4166666666666 0 464.5833333333333 0H143.75z" />
    <glyph glyph-name="arrow-down"
      unicode="&#xF113;"
      horiz-adv-x="500" d=" M239.5833333333333 2.0833333333334L239.5833333333333 2.0833333333334L239.5833333333333 2.0833333333334L239.5833333333333 2.0833333333334L239.5833333333333 2.0833333333334L239.5833333333333 2.0833333333334L239.5833333333333 2.0833333333334L239.5833333333333 2.0833333333334L239.5833333333333 2.0833333333334C233.3333333333333 4.1666666666667 233.3333333333333 4.1666666666667 231.25 8.3333333333334L62.5 175.0000000000001C52.0833333333333 185.4166666666668 52.0833333333333 202.0833333333334 62.5 214.5833333333334C72.9166666666667 225.0000000000001 91.6666666666667 225.0000000000001 102.0833333333333 214.5833333333334L222.9166666666666 95.8333333333334V472.9166666666667C220.8333333333333 489.5833333333333 233.3333333333333 500 250 500C266.6666666666667 500 279.1666666666667 489.5833333333333 279.1666666666667 472.9166666666667V93.75L400 212.5C410.4166666666667 222.9166666666667 429.1666666666666 222.9166666666667 439.5833333333333 212.5C450 202.0833333333333 450 185.4166666666666 439.5833333333333 172.9166666666667L270.8333333333333 6.2499999999999L270.8333333333333 6.2499999999999L270.8333333333333 6.2499999999999L270.8333333333333 6.2499999999999L270.8333333333333 6.2499999999999L270.8333333333333 6.2499999999999L270.8333333333333 6.2499999999999L270.8333333333333 6.2499999999999L270.8333333333333 6.2499999999999L270.8333333333333 6.2499999999999L270.8333333333333 6.2499999999999L270.8333333333333 6.2499999999999L270.8333333333333 6.2499999999999L270.8333333333333 6.2499999999999L270.8333333333333 6.2499999999999L270.8333333333333 6.2499999999999L270.8333333333333 6.2499999999999L270.8333333333333 6.2499999999999L270.8333333333333 6.2499999999999L270.8333333333333 6.2499999999999L270.8333333333333 6.2499999999999L270.8333333333333 6.2499999999999L270.8333333333333 6.2499999999999L270.8333333333333 6.2499999999999L270.8333333333333 6.2499999999999L270.8333333333333 6.2499999999999L270.8333333333333 6.2499999999999C256.25 -2.0833333333333 247.9166666666667 -2.0833333333333 239.5833333333333 2.0833333333334L239.5833333333333 2.0833333333334z" />
    <glyph glyph-name="arrow-left"
      unicode="&#xF114;"
      horiz-adv-x="500" d=" M174.8125 71.28125L8.796875 233.390625C0 250.0000000000001 0 253.9062500000001 1.953125 262.6875C1.953125 264.640625 3.90625 268.546875 8.796875 268.546875L174.8125 431.640625C185.5625 441.40625 202.15625 441.40625 214.859375 431.640625C227.5625000000001 420.890625 224.625 404.296875 214.859375 393.546875L95.71875 281.234375H474.625C491.234375 281.234375 501.9687500000001 270.484375 501.9687500000001 253.8906250000001S491.2187500000001 227.5156250000001 474.6250000000001 227.5156250000001H93.7656250000001L212.9062500000001 110.3281250000001C222.6718750000001 99.5781250000001 222.6718750000001 82.9843750000001 212.9062500000001 73.2187500000001C202.1562500000001 60.5156250000001 185.5625000000001 60.5156250000001 174.8125000000001 71.2656250000001z" />
    <glyph glyph-name="arrow-right"
      unicode="&#xF115;"
      horiz-adv-x="500" d=" M287.109375 68.359375C277.34375 79.109375 277.34375 95.703125 287.109375 106.453125L406.25 220.71875H27.34375C10.734375 222.671875 0 233.421875 0 250.015625S10.75 277.359375 27.34375 277.359375H406.25L287.109375 391.625C277.34375 402.375 277.34375 418.96875 287.109375 428.734375C297.859375 439.484375 314.453125 439.484375 327.15625 428.734375L494.1562499999999 268.578125C496.1093749999999 266.625 496.1093749999999 266.625 500.0156249999999 262.71875C501.9687499999999 253.921875 501.9687499999999 246.109375 500.0156249999999 241.234375L333.015625 81.0781249999999C314.453125 58.6093749999999 297.859375 58.6093749999999 287.109375 68.3749999999999z" />
    <glyph glyph-name="arrow-up-left"
      unicode="&#xF116;"
      horiz-adv-x="500" d=" M356.25 500C377.0833333333333 500 391.6666666666667 485.4166666666667 391.6666666666667 464.5833333333333S377.0833333333333 429.1666666666667 356.25 429.1666666666667H120.8333333333333L489.5833333333333 60.4166666666667C504.1666666666666 45.8333333333334 504.1666666666666 25.0000000000001 489.5833333333333 10.4166666666667C475 -4.1666666666666 454.1666666666666 -4.1666666666666 439.5833333333333 10.4166666666667L70.8333333333333 379.1666666666667V143.75C70.8333333333333 122.9166666666667 56.25 108.3333333333333 35.4166666666667 108.3333333333333S0 120.8333333333334 0 143.75V464.5833333333333C0 485.4166666666667 14.5833333333333 500 35.4166666666667 500H356.25z" />
    <glyph glyph-name="arrow-up-right"
      unicode="&#xF117;"
      horiz-adv-x="500" d=" M10.4166666666667 10.4166666666667C-4.1666666666667 25 -4.1666666666667 45.8333333333334 10.4166666666667 60.4166666666667L379.1666666666667 429.1666666666667H143.75C122.9166666666667 429.1666666666667 108.3333333333333 443.75 108.3333333333333 464.5833333333333S120.8333333333333 500 143.75 500H464.5833333333333C468.75 500 475 500 479.1666666666666 495.8333333333333L479.1666666666666 495.8333333333333L479.1666666666666 495.8333333333333L479.1666666666666 495.8333333333333L479.1666666666666 495.8333333333333L479.1666666666666 495.8333333333333L479.1666666666666 495.8333333333333L479.1666666666666 495.8333333333333L479.1666666666666 495.8333333333333L479.1666666666666 495.8333333333333L479.1666666666666 495.8333333333333L479.1666666666666 495.8333333333333L479.1666666666666 495.8333333333333L479.1666666666666 495.8333333333333L479.1666666666666 495.8333333333333L479.1666666666666 495.8333333333333L479.1666666666666 495.8333333333333L479.1666666666666 495.8333333333333L479.1666666666666 495.8333333333333L479.1666666666666 495.8333333333333L479.1666666666666 495.8333333333333L479.1666666666666 495.8333333333333L479.1666666666666 495.8333333333333L479.1666666666666 495.8333333333333L479.1666666666666 495.8333333333333L479.1666666666666 495.8333333333333L479.1666666666666 495.8333333333333L479.1666666666666 495.8333333333333L479.1666666666666 495.8333333333333L479.1666666666666 495.8333333333333L479.1666666666666 495.8333333333333L479.1666666666666 495.8333333333333L479.1666666666666 495.8333333333333C479.1666666666666 495.8333333333333 479.1666666666666 495.8333333333333 483.3333333333333 491.6666666666667L483.3333333333333 491.6666666666667L483.3333333333333 491.6666666666667L483.3333333333333 491.6666666666667L483.3333333333333 491.6666666666667L483.3333333333333 491.6666666666667C495.8333333333333 479.1666666666667 500 470.8333333333333 500 464.5833333333333V143.75C500 122.9166666666667 485.4166666666666 108.3333333333333 464.5833333333333 108.3333333333333S429.1666666666667 122.9166666666667 429.1666666666667 143.75V379.1666666666667L60.4166666666667 10.4166666666667C45.8333333333333 -4.1666666666666 25 -4.1666666666666 10.4166666666667 10.4166666666667L10.4166666666667 10.4166666666667z" />
    <glyph glyph-name="arrow-up"
      unicode="&#xF118;"
      horiz-adv-x="500" d=" M435.4166666666667 325C445.8333333333333 314.5833333333334 445.8333333333333 297.9166666666667 435.4166666666667 287.5C425 277.0833333333333 408.3333333333333 277.0833333333333 397.9166666666666 287.5L275 410.4166666666667V27.0833333333334C275 12.5000000000001 264.5833333333333 0 247.9166666666666 0C233.3333333333333 0 220.8333333333332 10.4166666666667 220.8333333333332 27.0833333333334V410.4166666666667L97.9166666666666 287.5C87.4999999999999 277.0833333333334 70.8333333333332 277.0833333333334 60.4166666666666 287.5S52.0833333333333 312.5 64.5833333333333 325L231.25 491.6666666666667C241.6666666666667 502.0833333333333 258.3333333333333 502.0833333333333 268.75 491.6666666666667L435.4166666666667 325z" />
    <glyph glyph-name="at-sign"
      unicode="&#xF119;"
      horiz-adv-x="500" d=" M250 0C110.4166666666667 0 0 110.4166666666667 0 250S110.4166666666667 500 250 500S500 389.5833333333334 500 250V227.0833333333334C500 177.0833333333334 458.3333333333333 135.4166666666667 408.3333333333333 135.4166666666667C379.1666666666667 135.4166666666667 352.0833333333334 150 333.3333333333333 175C291.6666666666667 127.0833333333334 218.75 122.9166666666667 172.9166666666667 166.6666666666667S120.8333333333334 281.25 164.5833333333334 327.0833333333333S279.1666666666667 379.1666666666667 325 335.4166666666667C350 312.5 364.5833333333333 281.25 364.5833333333333 250V227.0833333333334C364.5833333333333 202.0833333333334 385.4166666666667 181.25 410.4166666666667 181.25S456.2499999999999 202.0833333333333 456.2499999999999 227.0833333333333V250C456.2499999999999 364.5833333333334 364.5833333333333 454.1666666666667 252.0833333333333 454.1666666666667S45.8333333333333 364.5833333333334 45.8333333333333 250S137.5 45.8333333333334 250 45.8333333333334C295.8333333333333 45.8333333333334 339.5833333333333 60.4166666666667 375 89.5833333333334C383.3333333333333 95.8333333333334 400 95.8333333333334 406.25 85.4166666666667C412.5 77.0833333333334 412.5 60.4166666666667 402.0833333333333 54.1666666666667C358.3333333333333 18.75 304.1666666666667 0 250 0zM250 318.75C210.4166666666667 318.75 181.25 289.5833333333334 181.25 250S210.4166666666667 181.25 250 181.25S318.75 210.4166666666667 318.75 250S289.5833333333333 318.75 250 318.75z" />
    <glyph glyph-name="award"
      unicode="&#xF11A;"
      horiz-adv-x="500" d=" M343.75 2.0833333333334L250 58.3333333333334L156.25 2.0833333333334C145.8333333333333 -2.0833333333333 133.3333333333334 0 127.0833333333333 10.4166666666667C125 14.5833333333334 125 18.75 125 22.9166666666667L147.9166666666667 200.0000000000001C75 256.25 62.5 362.5 116.6666666666667 435.4166666666667S279.1666666666667 520.8333333333334 352.0833333333333 466.6666666666667S439.5833333333333 306.25 383.3333333333333 233.3333333333334C375 220.8333333333334 364.5833333333333 210.4166666666667 352.0833333333333 202.0833333333334L375 25.0000000000001C377.0833333333333 14.5833333333334 368.75 2.0833333333334 356.25 2.0833333333334H354.1666666666667C350 0 345.8333333333334 0 343.75 2.0833333333334zM260.4166666666667 102.0833333333333L327.0833333333333 62.5L312.5 179.1666666666667C272.9166666666667 162.5000000000001 227.0833333333333 162.5000000000001 187.5 179.1666666666667L170.8333333333333 60.4166666666667L237.5 99.9999999999999C245.8333333333334 104.1666666666667 254.1666666666667 104.1666666666667 260.4166666666667 102.0833333333333zM125 333.3333333333334C125 264.5833333333334 181.25 208.3333333333334 250 208.3333333333334C272.9166666666667 208.3333333333334 295.8333333333333 214.5833333333334 316.6666666666667 227.0833333333334L318.75 229.1666666666667C377.0833333333333 266.6666666666667 391.6666666666666 345.8333333333334 354.1666666666667 402.0833333333334S239.5833333333333 475 181.25 437.5C145.8333333333333 414.5833333333334 125 375 125 333.3333333333334z" />
    <glyph glyph-name="bar-chart-2"
      unicode="&#xF11B;"
      horiz-adv-x="500" d=" M477.0833333333333 20.8333333333334H385.4166666666667C370.8333333333333 20.8333333333334 362.5 29.1666666666667 362.5 43.7500000000001V341.6666666666667C362.5 356.25 370.8333333333333 364.5833333333334 385.4166666666667 364.5833333333334H477.0833333333333C491.6666666666666 364.5833333333334 500 356.25 500 341.6666666666667V43.7500000000001C500 29.1666666666667 491.6666666666667 20.8333333333334 477.0833333333333 20.8333333333334zM408.3333333333333 318.75V66.6666666666667H454.1666666666666V318.75H408.3333333333333zM295.8333333333333 20.8333333333334H204.1666666666667C189.5833333333334 20.8333333333334 181.25 29.1666666666667 181.25 43.7500000000001V456.25C181.25 470.8333333333333 191.6666666666666 479.1666666666667 204.1666666666667 479.1666666666667H295.8333333333333C310.4166666666667 479.1666666666667 318.75 470.8333333333333 318.75 456.25V43.75C318.75 29.1666666666667 308.3333333333333 20.8333333333334 295.8333333333333 20.8333333333334zM227.0833333333333 433.3333333333333V66.6666666666667H272.9166666666667V433.3333333333333H227.0833333333333zM114.5833333333333 20.8333333333334H22.9166666666667C8.3333333333333 20.8333333333334 0 29.1666666666667 0 43.7500000000001V227.0833333333334C0 241.6666666666667 8.3333333333333 250 22.9166666666667 250H114.5833333333333C129.1666666666667 250 137.5 241.6666666666667 137.5 227.0833333333334V43.7500000000001C135.4166666666667 29.1666666666667 127.0833333333333 20.8333333333334 114.5833333333333 20.8333333333334zM45.8333333333333 204.1666666666667V66.6666666666667H91.6666666666667V204.1666666666668H45.8333333333333z" />
    <glyph glyph-name="bar-chart"
      unicode="&#xF11C;"
      horiz-adv-x="500" d=" M477.0833333333333 20.8333333333334H385.4166666666667C370.8333333333333 20.8333333333334 362.5 29.1666666666667 362.5 43.7500000000001V456.25C362.5 470.8333333333333 370.8333333333333 479.1666666666667 385.4166666666667 479.1666666666667H477.0833333333333C491.6666666666667 479.1666666666667 500 470.8333333333333 500 456.25V43.75C500 29.1666666666667 491.6666666666667 20.8333333333334 477.0833333333333 20.8333333333334zM408.3333333333333 433.3333333333333V66.6666666666667H454.1666666666666V433.3333333333333H408.3333333333333zM295.8333333333333 20.8333333333334H204.1666666666667C189.5833333333334 20.8333333333334 181.25 29.1666666666667 181.25 43.7500000000001V341.6666666666667C181.25 356.25 189.5833333333334 364.5833333333334 204.1666666666667 364.5833333333334H295.8333333333333C310.4166666666667 364.5833333333334 318.75 356.25 318.75 341.6666666666667V43.7500000000001C318.75 29.1666666666667 308.3333333333333 20.8333333333334 295.8333333333333 20.8333333333334zM227.0833333333333 318.75V66.6666666666667H272.9166666666667V318.75H227.0833333333333zM114.5833333333333 20.8333333333334H22.9166666666667C8.3333333333333 20.8333333333334 0 29.1666666666667 0 43.7500000000001V227.0833333333334C0 241.6666666666667 8.3333333333333 250 22.9166666666667 250H114.5833333333333C129.1666666666667 250 137.5 241.6666666666667 137.5 227.0833333333334V43.7500000000001C135.4166666666667 29.1666666666667 127.0833333333333 20.8333333333334 114.5833333333333 20.8333333333334zM45.8333333333333 204.1666666666667V66.6666666666667H91.6666666666667V204.1666666666668H45.8333333333333z" />
    <glyph glyph-name="battery-charging"
      unicode="&#xF11D;"
      horiz-adv-x="500" d=" M287.5 104.1666666666667C275 104.1666666666667 266.6666666666667 112.5 266.6666666666667 125C266.6666666666667 137.5000000000001 275 145.8333333333334 287.5 145.8333333333334H354.1666666666667C366.6666666666667 145.8333333333334 375 154.1666666666666 375 166.6666666666667V333.3333333333334C375 345.8333333333334 366.6666666666667 354.1666666666667 354.1666666666667 354.1666666666667H312.5C300 354.1666666666667 291.6666666666667 362.5 291.6666666666667 375S300 395.8333333333334 312.5 395.8333333333334H354.1666666666667C389.5833333333333 395.8333333333334 416.6666666666667 368.75 416.6666666666667 333.3333333333334V166.6666666666667C416.6666666666667 131.2500000000001 389.5833333333333 104.1666666666667 354.1666666666667 104.1666666666667H287.5zM62.5 104.1666666666667C27.0833333333333 104.1666666666667 0 131.2500000000001 0 166.6666666666667V333.3333333333334C0 368.75 27.0833333333333 395.8333333333334 62.5 395.8333333333334H129.1666666666667C141.6666666666667 395.8333333333334 150 387.5 150 375S141.6666666666667 354.1666666666667 129.1666666666667 354.1666666666667H62.5C50 354.1666666666667 41.6666666666667 345.8333333333334 41.6666666666667 333.3333333333334V166.6666666666667C41.6666666666667 154.1666666666666 50 145.8333333333334 62.5 145.8333333333334H104.1666666666667C116.6666666666667 145.8333333333334 125 137.5000000000001 125 125C125 112.5 116.6666666666667 104.1666666666667 104.1666666666667 104.1666666666667H62.5zM175 108.3333333333333C164.5833333333334 114.5833333333334 162.5 127.0833333333333 168.75 137.5L168.75 137.5L231.25 229.1666666666667H145.8333333333333C133.3333333333334 229.1666666666667 125 237.5 125 250C125 254.1666666666667 127.0833333333333 258.3333333333333 129.1666666666667 262.5L212.5 387.5C218.75 397.9166666666667 231.25 400 241.6666666666667 393.75C252.0833333333333 387.5 254.1666666666667 375 247.9166666666667 364.5833333333333L185.4166666666667 270.8333333333333H270.8333333333333C283.3333333333333 270.8333333333333 291.6666666666667 262.5 291.6666666666667 250C291.6666666666667 245.8333333333333 289.5833333333333 241.6666666666667 287.5 237.5L204.1666666666667 112.5C197.9166666666667 104.1666666666667 185.4166666666667 102.0833333333333 175 108.3333333333333L175 108.3333333333333L175 108.3333333333333zM458.3333333333333 229.1666666666667V270.8333333333334C458.3333333333333 283.3333333333334 466.6666666666666 291.6666666666667 479.1666666666666 291.6666666666667S500 283.3333333333334 500 270.8333333333334V229.1666666666667C500 216.6666666666667 491.6666666666667 208.3333333333334 479.1666666666666 208.3333333333334S458.3333333333333 216.6666666666667 458.3333333333333 229.1666666666667z" />
    <glyph glyph-name="battery"
      unicode="&#xF11E;"
      horiz-adv-x="500" d=" M62.5 104.1666666666667C27.0833333333333 104.1666666666667 0 131.2500000000001 0 166.6666666666667V333.3333333333334C0 368.75 27.0833333333333 395.8333333333334 62.5 395.8333333333334H354.1666666666667C389.5833333333333 395.8333333333334 416.6666666666667 368.75 416.6666666666667 333.3333333333334V166.6666666666667C416.6666666666667 131.2500000000001 389.5833333333333 104.1666666666667 354.1666666666667 104.1666666666667H62.5zM41.6666666666667 333.3333333333334V166.6666666666667C41.6666666666667 154.1666666666666 50 145.8333333333334 62.5 145.8333333333334H354.1666666666667C366.6666666666667 145.8333333333334 375 154.1666666666666 375 166.6666666666667V333.3333333333334C375 345.8333333333334 366.6666666666667 354.1666666666667 354.1666666666667 354.1666666666667H62.5C50 354.1666666666667 41.6666666666667 345.8333333333334 41.6666666666667 333.3333333333334zM458.3333333333333 229.1666666666667V270.8333333333334C458.3333333333333 283.3333333333334 466.6666666666666 291.6666666666667 479.1666666666666 291.6666666666667S500 283.3333333333334 500 270.8333333333334V229.1666666666667C500 216.6666666666667 491.6666666666667 208.3333333333334 479.1666666666666 208.3333333333334S458.3333333333333 216.6666666666667 458.3333333333333 229.1666666666667z" />
    <glyph glyph-name="bell-off"
      unicode="&#xF11F;"
      horiz-adv-x="500" d=" M464.5833333333333 6.2500000000001L345.8333333333334 125H41.6666666666667C29.1666666666667 125 20.8333333333333 133.3333333333333 20.8333333333333 145.8333333333334S29.1666666666667 166.6666666666667 41.6666666666667 166.6666666666667C64.5833333333333 166.6666666666667 83.3333333333333 185.4166666666667 83.3333333333333 208.3333333333334V312.5C83.3333333333333 333.3333333333334 87.5 354.1666666666667 95.8333333333333 375L6.25 464.5833333333333C-2.0833333333333 472.9166666666667 -2.0833333333333 485.4166666666667 6.25 493.75S27.0833333333333 502.0833333333333 35.4166666666667 493.75L135.4166666666667 393.75L135.4166666666667 393.75L493.7499999999999 35.4166666666667C502.0833333333333 27.0833333333334 502.0833333333333 14.5833333333334 493.7499999999999 6.2500000000001C485.4166666666666 -2.0833333333333 472.9166666666666 -2.0833333333333 464.5833333333333 6.2500000000001C464.5833333333333 6.2500000000001 464.5833333333333 6.2500000000001 464.5833333333333 6.2500000000001zM125 312.5V208.3333333333334C125 193.7500000000001 120.8333333333333 179.1666666666667 114.5833333333333 166.6666666666667H304.1666666666667L129.1666666666667 341.6666666666667C127.0833333333333 333.3333333333334 125 322.9166666666667 125 312.5zM195.8333333333334 52.0833333333334C189.5833333333333 62.5 191.6666666666667 75.0000000000001 202.0833333333334 81.25C212.5 87.5 225 85.4166666666666 231.2500000000001 75C231.2500000000001 75 231.2500000000001 75 231.2500000000001 72.9166666666666C237.5000000000001 62.4999999999999 250.0000000000001 60.4166666666666 260.4166666666667 64.5833333333333C264.5833333333333 66.6666666666667 266.6666666666667 68.7499999999999 268.7500000000001 72.9166666666666C275.0000000000001 83.3333333333333 287.5000000000001 85.4166666666666 297.9166666666667 79.1666666666666C306.2500000000001 72.9166666666666 310.4166666666667 60.4166666666667 306.2500000000001 52.0833333333333C289.5833333333334 22.9166666666666 250.0000000000001 12.5 220.8333333333334 29.1666666666666C208.3333333333333 35.4166666666667 202.0833333333333 41.6666666666667 195.8333333333334 52.0833333333334L195.8333333333334 52.0833333333334zM375 229.1666666666667V312.5C375 381.25 318.75 437.5 250 437.5C229.1666666666667 437.5 206.25 431.25 187.5 420.8333333333334C179.1666666666667 416.6666666666667 166.6666666666667 418.75 160.4166666666667 429.1666666666667C154.1666666666667 439.5833333333333 158.3333333333333 452.0833333333334 168.75 458.3333333333333C247.9166666666667 504.1666666666667 350 475 395.8333333333333 395.8333333333334C410.4166666666667 370.8333333333334 416.6666666666667 341.6666666666667 416.6666666666667 314.5833333333334V231.25C416.6666666666667 218.75 408.3333333333333 210.4166666666667 395.8333333333333 210.4166666666667S375 216.6666666666667 375 229.1666666666667z" />
    <glyph glyph-name="bell"
      unicode="&#xF120;"
      horiz-adv-x="500" d=" M250 0C224.609375 0 202.140625 14.65625 191.40625 33.203125C185.546875 43.953125 189.453125 58.59375 200.203125 64.453125C202.15625 66.40625 206.0625 66.40625 209.96875 66.40625H292.0000000000001C306.65625 66.40625 314.46875 58.59375 314.46875 43.9375C314.46875 40.03125 314.46875 37.0937500000001 312.515625 33.1875000000001C297.8593750000001 14.6250000000001 275.40625 -0.0156249999999 250.0156250000001 -0.0156249999999zM477.546875 114.25H22.46875C8.796875 114.25 0 123.046875 0 137.6875S8.796875 160.15625 22.46875 160.15625C47.859375 160.15625 68.375 181.640625 68.375 206.0625V318.375C68.375 418.96875 150.40625 500.0156249999999 250.015625 500.0156249999999S431.65625 418.953125 431.65625 318.375V204.109375C431.65625 178.71875 452.1718749999999 158.203125 477.5624999999999 158.203125C491.2343749999999 158.203125 500.0312499999999 150.390625 500.0312499999999 135.734375C500.0312499999999 123.0312500000001 491.2343749999999 114.25 477.5624999999999 114.25zM250 454.09375C174.796875 454.09375 114.25 393.546875 114.25 318.34375V204.078125C114.25 187.46875 110.34375 172.828125 104.484375 158.171875H402.34375C393.546875 172.828125 391.59375 187.46875 391.59375 204.078125V318.34375C385.734375 393.546875 325.1875 454.09375 249.984375 454.09375z" />
    <glyph glyph-name="bluecoders"
      unicode="&#xF121;"
      horiz-adv-x="500" d=" M250 207.03125C189.453125 207.03125 136.71875 226.5625 112.296875 255.859375V78.125L181.640625 146.484375L250 78.125L318.359375 146.484375L387.703125 78.125V255.859375C363.28125 226.5625 310.546875 207.03125 250 207.03125zM376.953125 336.90625C356.4375 386.71875 307.609375 421.875 250 421.875S143.546875 386.71875 123.046875 336.90625C150.390625 360.34375 197.265625 375.96875 250 375.96875S349.609375 360.34375 376.953125 336.90625zM338.875 291.015625C338.875 270.5 322.265625 253.90625 301.765625 253.90625S264.65625 270.515625 264.65625 291.015625C264.65625 311.53125 281.265625 328.125 301.765625 328.125S338.875 311.515625 338.875 291.015625zM235.359375 291.015625C235.359375 270.5 218.75 253.90625 198.25 253.90625S161.140625 270.515625 161.140625 291.015625C161.140625 311.53125 177.75 328.125 198.25 328.125S235.359375 311.515625 235.359375 291.015625z" />
    <glyph glyph-name="bluetooth"
      unicode="&#xF122;"
      horiz-adv-x="500" d=" M250 0C243.75 0 239.5833333333333 2.0833333333334 235.4166666666667 6.2500000000001C231.25 10.4166666666667 229.1666666666667 16.6666666666667 229.1666666666667 20.8333333333334V200L150 120.8333333333334C141.6666666666667 112.5000000000001 129.1666666666667 112.5000000000001 120.8333333333334 120.8333333333334C112.5 129.1666666666667 112.5 141.6666666666667 120.8333333333334 150L220.8333333333334 250L120.8333333333333 350C112.5 358.3333333333334 112.5 370.8333333333334 120.8333333333333 379.1666666666667C129.1666666666667 387.5 141.6666666666667 387.5 150 379.1666666666667L229.1666666666667 300V479.1666666666667C229.1666666666667 491.6666666666667 239.5833333333333 500 250 500C256.25 500 260.4166666666667 497.9166666666667 264.5833333333333 493.75L379.1666666666667 379.1666666666667C387.5 370.8333333333334 387.5 358.3333333333334 379.1666666666667 350L279.1666666666667 250L379.1666666666667 150C387.5 141.6666666666667 387.5 129.1666666666667 379.1666666666667 120.8333333333334L264.5833333333333 6.2500000000001C260.4166666666667 2.0833333333334 256.25 0 250 0zM270.8333333333333 200V70.8333333333333L335.4166666666667 135.4166666666667L270.8333333333333 200zM220.8333333333333 250L270.8333333333333 200V300L220.8333333333333 250zM270.8333333333333 429.1666666666667V300L335.4166666666667 364.5833333333334L270.8333333333333 429.1666666666667z" />
    <glyph glyph-name="book"
      unicode="&#xF123;"
      horiz-adv-x="500" d=" M128.90625 0C87.890625 0 51.75 35.15625 51.75 79.109375V420.90625C51.75 464.859375 87.890625 500.015625 128.90625 500.015625H424.8125C437.515625 500.015625 448.25 491.21875 448.25 477.546875V22.46875C448.25 8.796875 439.453125 0 424.8125 0zM128.90625 45.890625H404.296875V114.25H128.90625C112.296875 114.25 95.703125 97.6406250000001 95.703125 81.046875S110.359375 45.890625 128.90625 45.890625zM95.703125 420.890625V152.3281250000001C106.453125 156.2343750000001 119.140625 158.1875000000001 128.90625 158.1875000000001H404.296875V454.09375H128.90625C110.34375 454.09375 95.703125 439.4375 95.703125 420.890625z" />
    <glyph glyph-name="bookmark"
      unicode="&#xF124;"
      horiz-adv-x="500" d=" M422.9166666666667 0C418.75 0 412.5 2.0833333333334 408.3333333333333 4.1666666666667L250 120.8333333333334L91.6666666666667 6.2500000000001C87.5 2.0833333333334 81.25 0 77.0833333333333 0C68.75 0 64.5833333333333 2.0833333333334 60.4166666666667 8.3333333333333C56.25 12.5 52.0833333333333 18.75 52.0833333333333 25V425C52.0833333333333 466.6666666666667 83.3333333333333 500 127.0833333333333 500H375C416.6666666666667 500 450 466.6666666666667 450 425V25C447.9166666666667 10.4166666666667 437.5 0 422.9166666666667 0zM250 175C254.1666666666667 175 260.4166666666667 172.9166666666667 264.5833333333333 170.8333333333334L397.9166666666667 72.9166666666667V425C397.9166666666667 439.5833333333333 387.5 450 372.9166666666667 450H127.0833333333333C112.5 450 102.0833333333333 439.5833333333333 102.0833333333333 425V72.9166666666667L235.4166666666667 170.8333333333333C239.5833333333333 172.9166666666667 245.8333333333334 175 250 175z" />
    <glyph glyph-name="box"
      unicode="&#xF125;"
      horiz-adv-x="500" d=" M220.8333333333333 6.2500000000001L47.9166666666666 91.6666666666667C27.0833333333333 102.0833333333333 12.5 125 10.4166666666666 147.9166666666666V352.0833333333334C10.4166666666666 375 22.9166666666666 397.9166666666667 47.9166666666666 408.3333333333334L220.8333333333333 493.75C237.5 502.0833333333333 260.4166666666667 502.0833333333333 279.1666666666667 493.75L452.0833333333333 408.3333333333334C472.9166666666666 397.9166666666667 489.5833333333333 375 489.5833333333333 352.0833333333334V150.0000000000001C489.5833333333333 127.0833333333334 477.0833333333333 104.1666666666667 452.0833333333333 93.7500000000001L279.1666666666667 8.3333333333335C260.4166666666667 -2.0833333333333 237.5 -2.0833333333333 220.8333333333333 6.2500000000001L220.8333333333333 6.2500000000001zM54.1666666666667 147.9166666666668C54.1666666666667 139.5833333333334 58.3333333333333 133.3333333333334 64.5833333333333 129.1666666666668L227.0833333333333 50.0000000000001V258.3333333333334L54.1666666666667 343.75V147.9166666666668zM270.8333333333333 50L431.25 129.1666666666667C437.5 133.3333333333333 443.75 139.5833333333333 443.75 147.9166666666666V343.75L270.8333333333333 258.3333333333334V50zM239.5833333333333 454.1666666666667L79.1666666666667 379.1666666666667L247.9166666666667 295.8333333333334L416.6666666666667 379.1666666666667L258.3333333333333 458.3333333333333C254.1666666666667 458.3333333333333 243.75 458.3333333333333 239.5833333333333 454.1666666666667L239.5833333333333 454.1666666666667z" />
    <glyph glyph-name="briefcase"
      unicode="&#xF126;"
      horiz-adv-x="500" d=" M341.6666666666667 20.8333333333334H68.75C29.1666666666667 20.8333333333334 0 50 0 89.5833333333334V318.75C0 358.3333333333334 29.1666666666667 387.5 68.75 387.5H137.5V410.4166666666667C135.4166666666667 450 166.6666666666667 479.1666666666667 204.1666666666667 479.1666666666667H295.8333333333333C335.4166666666667 479.1666666666667 364.5833333333333 450 364.5833333333333 410.4166666666667V387.5H433.3333333333333C472.9166666666666 387.5 502.0833333333333 358.3333333333333 502.0833333333333 318.75V89.5833333333334C502.0833333333333 50.0000000000001 472.9166666666667 20.8333333333334 433.3333333333333 20.8333333333334H341.6666666666667zM431.25 66.6666666666667C445.8333333333333 66.6666666666667 454.1666666666666 75 454.1666666666666 89.5833333333334V318.75C454.1666666666666 333.3333333333334 445.8333333333334 341.6666666666667 431.25 341.6666666666667H362.5V66.6666666666667H431.25zM318.75 66.6666666666667V341.6666666666667H181.25V66.6666666666667H318.75zM45.8333333333333 318.75V89.5833333333334C45.8333333333333 75.0000000000001 54.1666666666667 66.6666666666667 68.75 66.6666666666667H137.5V341.6666666666667H68.75C54.1666666666667 341.6666666666667 45.8333333333333 333.3333333333334 45.8333333333333 318.75zM318.75 387.5V410.4166666666667C318.75 425 310.4166666666667 433.3333333333334 295.8333333333333 433.3333333333334H204.1666666666667C189.5833333333334 433.3333333333334 181.25 425 181.25 410.4166666666667V387.5H318.75z" />
    <glyph glyph-name="burger"
      unicode="&#xF127;"
      horiz-adv-x="500" d=" M33.203125 20.5C12.6875 20.5 0 33.203125 0 53.703125C0 75.1875 12.703125 87.890625 33.203125 87.890625H466.796875C487.3125 87.890625 500 75.1875 500 53.703125C500 33.1875000000001 487.296875 20.5 466.796875 20.5zM33.203125 216.796875C12.6875 216.796875 0 229.5 0 250S12.703125 283.203125 33.203125 283.203125H466.796875C487.3125 283.203125 500 270.5 500 250S487.296875 216.796875 466.796875 216.796875zM33.203125 415.03125C12.6875 415.03125 0 426.75 0 446.28125C0 464.84375 12.703125 479.484375 33.203125 479.484375H466.796875C487.3125 479.484375 500 466.78125 500 446.28125C500 424.796875 487.296875 412.09375 466.796875 412.09375H33.203125z" />
    <glyph glyph-name="calendar"
      unicode="&#xF128;"
      horiz-adv-x="500" d=" M89.84375 0C49.796875 0 20.5 29.296875 20.5 68.359375V385.75C20.5 424.8125 49.796875 454.109375 89.84375 454.109375H135.75V477.546875C135.75 491.21875 143.5625 500.015625 158.21875 500.015625S181.65625 491.21875 181.65625 477.546875V454.109375H318.375V477.546875C318.375 491.21875 327.171875 500.015625 341.8125 500.015625S364.28125 491.21875 364.28125 477.546875V454.109375H410.1875C450.234375 454.109375 479.5312499999999 424.8125 479.5312499999999 385.75V66.40625C479.5312499999999 27.34375 450.234375 -1.953125 410.1875 -1.953125H89.875zM66.40625 68.359375C66.40625 53.703125 75.203125 45.890625 89.84375 45.890625H410.15625C424.8125 45.890625 433.59375 53.703125 433.59375 68.359375V272.46875H66.40625zM433.59375 318.359375V385.75C433.59375 400.40625 424.796875 408.21875 410.15625 408.21875H364.25V385.75C364.25 371.09375 356.4375 362.3125 341.7812500000001 362.3125S318.3437500000001 371.109375 318.3437500000001 385.75V408.21875H181.625V385.75C181.625 371.09375 172.828125 362.3125 158.1875 362.3125S135.71875 373.0625 135.71875 385.75V408.21875H89.8125C75.15625 408.21875 66.375 400.40625 66.375 385.75V316.40625H433.5625z" />
    <glyph glyph-name="camera-off"
      unicode="&#xF129;"
      horiz-adv-x="500" d=" M464.5833333333333 6.2500000000001L429.1666666666667 41.6666666666667H62.5C27.0833333333333 41.6666666666667 0 68.7500000000001 0 104.1666666666667V333.3333333333334C0 368.75 27.0833333333333 395.8333333333334 62.5 395.8333333333334H75L6.25 464.5833333333333C-2.0833333333333 472.9166666666667 -2.0833333333333 485.4166666666667 6.25 493.75S27.0833333333333 502.0833333333333 35.4166666666667 493.75L333.3333333333333 195.8333333333334L333.3333333333333 195.8333333333334L452.0833333333333 77.0833333333333L452.0833333333333 77.0833333333333L493.7499999999999 35.4166666666667C502.0833333333333 27.0833333333334 502.0833333333333 14.5833333333334 493.7499999999999 6.2500000000001C485.4166666666666 -2.0833333333333 472.9166666666666 -2.0833333333333 464.5833333333333 6.2500000000001C464.5833333333333 6.2500000000001 464.5833333333333 6.2500000000001 464.5833333333333 6.2500000000001L464.5833333333333 6.2500000000001zM41.6666666666667 333.3333333333334V104.1666666666667C41.6666666666667 91.6666666666667 50 83.3333333333334 62.5 83.3333333333334H387.5L318.75 152.0833333333334C277.0833333333333 112.5000000000001 210.4166666666667 116.6666666666668 170.8333333333334 160.4166666666667C135.4166666666667 200 135.4166666666667 260.4166666666667 170.8333333333334 300L116.6666666666667 354.1666666666667H62.5C50 354.1666666666667 41.6666666666667 345.8333333333334 41.6666666666667 333.3333333333334zM187.5 216.6666666666667C193.75 183.3333333333334 227.0833333333333 160.4166666666667 260.4166666666667 168.7500000000001C270.8333333333333 170.8333333333334 279.1666666666667 175.0000000000001 287.5 181.2500000000001L200 268.7500000000001C189.5833333333333 254.1666666666667 185.4166666666667 235.4166666666667 187.5 216.6666666666667zM458.3333333333333 139.5833333333333V333.3333333333334C458.3333333333333 345.8333333333334 450 354.1666666666667 437.5 354.1666666666667H354.1666666666667C347.9166666666667 354.1666666666667 341.6666666666667 358.3333333333334 337.5 362.5L302.0833333333333 416.6666666666667H187.5C175 416.6666666666667 166.6666666666667 425 166.6666666666667 437.5S175 458.3333333333333 187.5 458.3333333333333H312.5C318.75 458.3333333333333 325 454.1666666666667 329.1666666666667 450L364.5833333333333 395.8333333333334H437.5C472.9166666666666 395.8333333333334 500 368.75 500 333.3333333333334V139.5833333333333C500 127.0833333333333 491.6666666666667 118.75 479.1666666666666 118.75S458.3333333333333 127.0833333333334 458.3333333333333 139.5833333333333z" />
    <glyph glyph-name="camera"
      unicode="&#xF12A;"
      horiz-adv-x="500" d=" M437.5 41.6666666666667H62.5C27.0833333333333 41.6666666666667 0 68.7500000000001 0 104.1666666666667V333.3333333333334C0 368.75 27.0833333333333 395.8333333333334 62.5 395.8333333333334H135.4166666666667L170.8333333333333 450C175 454.1666666666667 181.25 458.3333333333333 187.5 458.3333333333333H312.5C318.75 458.3333333333333 325 454.1666666666667 329.1666666666667 450L364.5833333333333 395.8333333333334H437.5C472.9166666666666 395.8333333333334 500 368.75 500 333.3333333333334V104.1666666666667C500 68.7500000000001 472.9166666666666 41.6666666666667 437.5 41.6666666666667zM62.5 354.1666666666667C50 354.1666666666667 41.6666666666667 345.8333333333334 41.6666666666667 333.3333333333334V104.1666666666667C41.6666666666667 91.6666666666667 50 83.3333333333334 62.5 83.3333333333334H437.5C450 83.3333333333334 458.3333333333333 91.6666666666667 458.3333333333333 104.1666666666667V333.3333333333334C458.3333333333333 345.8333333333334 450 354.1666666666667 437.5 354.1666666666667H354.1666666666667C347.9166666666667 354.1666666666667 341.6666666666667 358.3333333333334 337.5 362.5L302.0833333333333 416.6666666666667H197.9166666666667L162.5 362.5C158.3333333333333 358.3333333333334 152.0833333333333 354.1666666666667 145.8333333333333 354.1666666666667H62.5zM250 125C191.6666666666666 125 145.8333333333333 170.8333333333333 145.8333333333333 229.1666666666667S191.6666666666666 333.3333333333334 250 333.3333333333334S354.1666666666667 287.5 354.1666666666667 229.1666666666667S308.3333333333333 125 250 125zM250 291.6666666666667C214.5833333333334 291.6666666666667 187.5 264.5833333333334 187.5 229.1666666666667S214.5833333333334 166.6666666666667 250 166.6666666666667S312.5 193.7500000000001 312.5 229.1666666666667S285.4166666666667 291.6666666666667 250 291.6666666666667z" />
    <glyph glyph-name="candidates-plus"
      unicode="&#xF12B;"
      horiz-adv-x="593.75" d=" M396.875 0C384.375 0 371.875 12.5 371.875 25V75C371.875 115.6250000000001 337.5 150 296.875 150H125C84.375 150 50 115.6250000000001 50 75V25C50 12.5 37.5 0 25 0C12.5 0 0 12.5 0 25V75C0 143.7500000000001 56.25 200 125 200H296.875C365.625 200 421.875 143.75 421.875 75V25C421.875 12.5 409.375 0 396.875 0zM493.75 175C481.25 175 468.75 187.5 468.75 200V250H418.75C406.25 250 393.75 262.5 393.75 275C393.75 287.5 406.25 300 418.75 300H468.75V350C468.75 362.5 481.25 375 493.75 375C506.25 375 518.75 365.625 518.75 350C518.75 350 518.75 350 518.75 346.875V296.875H568.7500000000001C581.25 296.875 593.7500000000001 284.375 593.7500000000001 271.875C593.75 262.5 581.25 250 568.75 250H518.7499999999999V200C518.75 187.5 509.375 175 493.75 175zM209.375 250C140.625 250 84.375 303.125 84.375 375C84.375 443.75 137.5 500 209.375 500S334.375 446.875 334.375 375C334.375 375 334.375 375 334.375 375C334.375 306.25 278.125 250 209.375 250zM209.375 450C168.75 450 134.375 418.75 134.375 375C134.375 334.375 165.625 300 209.375 300S284.3750000000001 331.25 284.3750000000001 375C284.3750000000001 375 284.3750000000001 375 284.3750000000001 375C284.375 415.625 250 450 209.375 450z" />
    <glyph glyph-name="cast"
      unicode="&#xF12C;"
      horiz-adv-x="500" d=" M431.25 43.7500000000001H295.8333333333333C281.25 43.7500000000001 272.9166666666667 52.0833333333334 272.9166666666667 66.6666666666667C272.9166666666667 81.2500000000001 281.25 89.5833333333334 295.8333333333333 89.5833333333334H431.25C445.8333333333333 89.5833333333334 454.1666666666666 97.9166666666667 454.1666666666666 112.5000000000001V389.5833333333334C454.1666666666666 404.1666666666667 445.8333333333334 412.5 431.25 412.5H68.75C54.1666666666667 412.5 45.8333333333333 404.1666666666667 45.8333333333333 389.5833333333334V343.75C45.8333333333333 329.1666666666667 37.5 320.8333333333334 22.9166666666667 320.8333333333334S0 329.1666666666667 0 343.75V389.5833333333334C0 429.1666666666667 29.1666666666667 458.3333333333333 68.75 458.3333333333333H431.25C470.8333333333333 458.3333333333333 500 429.1666666666667 500 389.5833333333334V112.5C500 72.9166666666667 470.8333333333333 43.7500000000001 431.25 43.7500000000001zM202.0833333333333 43.7500000000001C191.6666666666666 43.7500000000001 181.25 52.0833333333334 179.1666666666667 64.5833333333334C175 106.2500000000001 156.25 145.8333333333334 127.0833333333333 175.0000000000001S60.4166666666667 222.9166666666667 18.75 229.1666666666667C8.3333333333333 229.1666666666667 -2.0833333333333 241.6666666666667 0 254.1666666666667C2.0833333333333 266.6666666666667 10.4166666666667 275 22.9166666666667 272.9166666666667H25C77.0833333333333 266.6666666666667 125 243.75 160.4166666666667 206.25C195.8333333333334 168.75 218.75 120.8333333333333 227.0833333333333 68.7499999999999C229.1666666666667 56.2499999999999 220.8333333333333 45.8333333333333 206.25 43.75C204.1666666666667 43.7500000000001 204.1666666666667 43.7500000000001 202.0833333333333 43.7500000000001zM112.5 43.7500000000001C102.0833333333333 43.7500000000001 91.6666666666667 50.0000000000001 89.5833333333333 62.5C83.3333333333333 100.0000000000001 56.25 127.0833333333334 18.75 133.3333333333333C8.3333333333334 135.4166666666667 -2.0833333333333 150 0 160.4166666666667S10.4166666666667 179.1666666666667 22.9166666666667 179.1666666666667C25 179.1666666666667 25 179.1666666666667 27.0833333333334 179.1666666666667C81.25 166.6666666666667 122.9166666666667 127.0833333333334 133.3333333333334 70.8333333333333C135.4166666666667 58.3333333333333 127.0833333333334 45.8333333333334 114.5833333333333 43.75C114.5833333333333 43.7500000000001 114.5833333333333 43.7500000000001 112.5 43.7500000000001z" />
    <glyph glyph-name="certificate"
      unicode="&#xF12D;"
      horiz-adv-x="500" d=" M343.75 1.953125L250 58.59375L156.25 1.953125C145.5 -1.953125 133.78125 0 126.953125 10.75C125 14.65625 125 18.5625 125 22.46875L147.46875 200.203125C75.203125 255.875 62.5 362.3125 116.21875 435.5625C170.90625 508.8125 279.3125 520.53125 352.5468750000001 466.8125C424.8125000000001 412.125 439.46875 306.65625 383.7968750000001 233.40625C375.0000000000001 220.703125 364.2656250000001 209.96875 352.5468750000001 202.15625L375.015625 25.390625C376.96875 14.640625 369.15625 1.953125 356.4531250000001 1.953125H354.5000000000001C349.6093750000001 0 345.7031250000001 0 343.7500000000001 1.953125zM260.75 102.53125L327.15625 62.4843750000001L312.5 178.703125C272.453125 162.0937500000001 227.5312500000001 162.0937500000001 187.5 178.703125L170.890625 60.5312500000001L237.296875 99.5937500000001C246.09375 104.484375 253.90625 104.484375 260.734375 102.53125zM125 333C125 264.640625 181.640625 208 250 208C272.46875 208 295.90625 214.84375 316.40625 227.53125L318.359375 229.484375C376.953125 266.59375 391.609375 345.703125 354.5 402.34375C316.40625 458.015625 239.265625 474.609375 181.640625 437.5C145.5 415.03125 125 375 125 333z" />
    <glyph glyph-name="chat"
      unicode="&#xF12E;"
      horiz-adv-x="500" d=" M498.046875 27.34375L470.703125 99.609375C479.5 119.140625 483.40625 139.65625 483.40625 162.109375C483.40625 208.015625 462.890625 250 428.71875 277.34375C426.765625 264.640625 424.8125 251.953125 418.953125 239.25C437.515625 220.6875000000001 450.203125 193.3437500000001 450.203125 165.03125C450.203125 145.5 446.296875 128.8906250000001 437.5 112.296875C435.546875 106.4375 435.546875 102.53125 437.5 95.6875000000001L452.15625 53.6875000000001L412.109375 71.2656250000001C406.25 73.2187500000001 400.390625 75.1718750000001 393.546875 71.2656250000001C376.9375000000001 62.4687500000001 358.390625 56.6093750000001 339.8281250000001 56.6093750000001C306.6250000000001 56.6093750000001 277.3281250000001 73.2187500000001 255.8437500000001 97.6250000000001C241.1875000000001 95.6718750000001 227.5156250000001 93.7187500000001 212.875 93.7187500000001C237.2968750000001 49.7656250000001 285.1406250000001 18.5156250000001 337.8750000000001 18.5156250000001C360.34375 18.5156250000001 380.8437500000001 22.4218750000001 402.3281250000001 33.1718750000001L472.6406250000001 5.8281250000001C474.5937500000001 5.8281250000001 477.53125 3.8750000000001 479.484375 3.8750000000001C483.390625 3.8750000000001 489.25 5.8281250000001 491.203125 10.7187500000001C500 12.6718750000001 501.953125 20.4843750000001 498.046875 27.3281250000001zM212.890625 500C108.390625 500 25.390625 415.03125 25.390625 310.546875C25.390625 285.15625 29.296875 260.734375 40.046875 235.34375L0 126.9375000000001C-1.953125 119.1250000000001 0 110.3281250000001 3.90625 106.4218750000001C8.796875 102.5156250000001 12.703125 99.5781250000001 18.5625 99.5781250000001C20.515625 99.5781250000001 22.46875 99.5781250000001 25.40625 102.5156250000001L130.875 141.5781250000001C156.265625 128.8750000000001 183.609375 123.0156250000001 209.984375 123.0156250000001C314.484375 123.0156250000001 397.484375 207.9843750000001 397.484375 312.4687500000001C400.421875 415.0156250000001 316.421875 499.9687500000001 212.90625 499.9687500000001zM212.890625 162.109375C189.453125 162.109375 165.03125 168.953125 143.546875 178.71875C141.59375 181.65625 137.6875 181.65625 133.78125 181.65625C130.84375 181.65625 126.9375 181.65625 124.984375 178.71875L53.6875 154.296875L79.078125 224.609375C82.984375 231.453125 82.984375 239.265625 81.03125 246.09375C71.265625 266.609375 66.375 287.109375 66.375 310.546875C66.375 391.609375 133.765625 458.015625 212.859375 458.015625S358.375 391.609375 358.375 310.546875C358.375 229.484375 293.921875 162.109375 212.859375 162.109375z" />
    <glyph glyph-name="check-circle"
      unicode="&#xF12F;"
      horiz-adv-x="500" d=" M39.5833333333333 118.75C-31.25 229.1666666666667 -2.0833333333333 379.1666666666667 108.3333333333333 450C175 493.75 262.5 500 337.5 466.6666666666667C347.9166666666667 462.5 352.0833333333333 450 347.9166666666667 437.5S331.25 422.9166666666667 318.75 427.0833333333334C220.8333333333333 472.9166666666667 104.1666666666667 429.1666666666667 60.4166666666667 329.1666666666667S60.4166666666667 112.5 160.4166666666666 68.7500000000001S375 68.7500000000001 418.75 168.7500000000001C429.1666666666667 195.8333333333334 435.4166666666667 220.8333333333334 435.4166666666667 250.0000000000001V270.8333333333334C435.4166666666667 283.3333333333334 443.75 291.6666666666667 456.25 291.6666666666667C468.7500000000001 291.6666666666667 477.0833333333334 283.3333333333334 477.0833333333334 270.8333333333334V250C477.0833333333334 116.6666666666668 370.8333333333335 10.4166666666667 237.5000000000001 10.4166666666667C158.3333333333333 10.4166666666667 83.3333333333333 52.0833333333334 39.5833333333333 118.75zM222.9166666666666 191.6666666666667L158.3333333333333 256.25C150 264.5833333333334 150 277.0833333333333 158.3333333333333 287.5C166.6666666666667 295.8333333333334 179.1666666666667 295.8333333333334 189.5833333333333 287.5L239.5833333333333 237.5L462.4999999999999 462.5C470.8333333333333 470.8333333333333 483.3333333333333 470.8333333333333 493.7499999999999 462.5C502.0833333333333 454.1666666666667 502.0833333333333 441.6666666666667 493.7499999999999 431.25L493.7499999999999 431.25L254.1666666666667 191.6666666666667C245.8333333333334 183.3333333333334 233.3333333333333 183.3333333333334 222.9166666666666 191.6666666666667L222.9166666666666 191.6666666666667z" />
    <glyph glyph-name="check-square"
      unicode="&#xF130;"
      horiz-adv-x="500" d=" M68.75 20.8333333333334C29.1666666666667 20.8333333333334 0 50 0 89.5833333333334V410.4166666666667C0 450 29.1666666666667 479.1666666666667 68.75 479.1666666666667H318.75C333.3333333333333 479.1666666666667 341.6666666666667 470.8333333333333 341.6666666666667 456.25S333.3333333333334 433.3333333333333 318.7500000000001 433.3333333333333H68.75C54.1666666666667 433.3333333333333 45.8333333333334 425 45.8333333333334 410.4166666666667V89.5833333333333C45.8333333333334 75 54.1666666666667 66.6666666666666 68.75 66.6666666666666H387.5C402.0833333333333 66.6666666666666 410.4166666666667 74.9999999999999 410.4166666666667 89.5833333333333V250C410.4166666666667 264.5833333333334 418.75 272.9166666666667 433.3333333333334 272.9166666666667C447.9166666666668 272.9166666666667 456.2500000000001 264.5833333333334 456.2500000000001 250V89.5833333333334C456.2500000000001 50.0000000000001 427.0833333333335 20.8333333333334 387.5000000000001 20.8333333333334H68.75zM210.4166666666667 187.5L141.6666666666667 256.25C133.3333333333333 264.5833333333334 133.3333333333333 279.1666666666667 141.6666666666667 287.5S164.5833333333334 295.8333333333334 172.9166666666667 287.5L225 235.4166666666667L460.4166666666667 472.9166666666667C468.75 481.25 483.3333333333334 481.25 491.6666666666667 472.9166666666667S500 450 491.6666666666667 441.6666666666667L243.75 187.5C233.3333333333333 179.1666666666667 220.8333333333333 179.1666666666667 210.4166666666667 187.5L210.4166666666667 187.5L210.4166666666667 187.5z" />
    <glyph glyph-name="check"
      unicode="&#xF131;"
      horiz-adv-x="500" d=" M47.859375 255.859375C37.109375 266.609375 20.515625 266.609375 8.796875 255.859375C-3.90625 246.09375 -1.953125 229.484375 8.796875 216.796875L147.46875 77.1406249999999C158.21875 66.390625 174.8125 66.390625 187.515625 77.1406249999999L491.234375 383.78125C501.9843750000001 393.546875 501.9843750000001 410.15625 491.234375 422.84375C481.46875 435.546875 464.859375 433.59375 452.171875 422.84375L167.015625 135.734375z" />
    <glyph glyph-name="checkbox"
      unicode="&#xF132;"
      horiz-adv-x="500" d=" M214.84375 49.796875L0 291.984375L68.359375 369.140625L214.84375 209.953125L431.640625 450.1875L500 373.03125z" />
    <glyph glyph-name="chevron-down"
      unicode="&#xF133;"
      horiz-adv-x="500" d=" M250 191.40625L60.546875 385.75C45.890625 400.40625 25.390625 400.40625 10.734375 385.75S-3.921875 349.609375 10.734375 334.96875L224.609375 116.2187500000001C239.265625 102.5468750000001 260.75 102.5468750000001 275.390625 116.2187500000001L489.2656250000001 333.015625C503.9218750000001 347.6718750000001 503.9218750000001 371.1093750000001 489.2656250000001 383.7968750000001C474.6093750000001 397.4687500000001 454.1093750000001 397.4687500000001 439.4531250000001 383.7968750000001z" />
    <glyph glyph-name="chevron-left"
      unicode="&#xF134;"
      horiz-adv-x="500" d=" M191.40625 250L385.7500000000001 439.453125C400.40625 454.109375 400.40625 474.609375 385.7500000000001 489.265625S347.6562500000001 503.921875 333.0156250000001 489.265625L114.2656250000001 275.390625C99.609375 260.734375 99.609375 239.25 114.2656250000001 224.609375L333.0156250000001 10.7343749999999C347.671875 -3.9218750000001 371.109375 -3.9218750000001 385.7500000000001 10.7343749999999S400.40625 45.8906249999999 385.7500000000001 60.5468749999999z" />
    <glyph glyph-name="chevron-right"
      unicode="&#xF135;"
      horiz-adv-x="500" d=" M308.59375 250L114.25 60.546875C99.59375 45.890625 99.59375 25.390625 114.25 10.734375S152.34375 -3.9218749999999 165.03125 10.734375L383.78125 224.609375C397.453125 239.265625 397.453125 260.75 383.78125 275.390625L166.984375 489.265625C152.328125 503.921875 128.890625 503.921875 114.25 489.265625S99.59375 454.109375 114.25 439.453125z" />
    <glyph glyph-name="chevron-up"
      unicode="&#xF136;"
      horiz-adv-x="500" d=" M250 308.59375L439.453125 114.25C454.109375 99.59375 474.609375 99.59375 489.265625 114.25S503.9218749999999 152.34375 489.265625 166.984375L275.390625 385.734375C260.734375 400.390625 239.25 400.390625 224.609375 385.734375L10.734375 166.984375C-3.921875 152.328125 -3.921875 128.890625 10.734375 114.25S45.890625 99.59375 60.546875 114.25z" />
    <glyph glyph-name="chevrons-down"
      unicode="&#xF137;"
      horiz-adv-x="500" d=" M225 10.4166666666667L52.0833333333333 189.5833333333334C37.5 204.1666666666667 37.5 225 52.0833333333333 239.5833333333334S87.5 254.1666666666667 100 239.5833333333334L250 85.4166666666667L400 239.5833333333334C414.5833333333333 254.1666666666667 435.4166666666667 254.1666666666667 447.9166666666667 239.5833333333334S462.4999999999999 204.1666666666668 447.9166666666667 189.5833333333334L275 10.4166666666667C260.4166666666667 -4.1666666666666 239.5833333333333 -4.1666666666666 225 10.4166666666667zM225 260.4166666666667L52.0833333333333 439.5833333333333C37.5 454.1666666666667 37.5 475 52.0833333333333 489.5833333333333S87.5 504.1666666666667 100 489.5833333333333L250 335.4166666666667L400 489.5833333333333C414.5833333333333 504.1666666666667 435.4166666666667 504.1666666666667 447.9166666666667 489.5833333333333S462.4999999999999 454.1666666666667 447.9166666666667 439.5833333333333L275 260.4166666666667C260.4166666666667 245.8333333333334 239.5833333333333 245.8333333333334 225 260.4166666666667z" />
    <glyph glyph-name="chevrons-left"
      unicode="&#xF138;"
      horiz-adv-x="500" d=" M439.5833333333333 52.0833333333334L260.4166666666667 225.0000000000001C245.8333333333334 239.5833333333334 245.8333333333334 260.4166666666667 260.4166666666667 272.9166666666668L439.5833333333333 445.8333333333334C454.1666666666666 460.4166666666667 475 460.4166666666667 489.5833333333333 445.8333333333334C504.1666666666666 431.2500000000001 504.1666666666666 410.4166666666668 489.5833333333333 397.9166666666668L335.4166666666667 250L489.5833333333333 100.0000000000001C504.1666666666666 85.4166666666667 504.1666666666666 64.5833333333334 489.5833333333333 52.0833333333334C475 37.5000000000001 454.1666666666666 37.5000000000001 439.5833333333333 52.0833333333334L439.5833333333333 52.0833333333334zM189.5833333333333 52.0833333333334L10.4166666666667 225.0000000000001C-4.1666666666667 239.5833333333334 -4.1666666666667 260.4166666666667 10.4166666666667 272.9166666666668L189.5833333333333 445.8333333333334C204.1666666666666 460.4166666666667 225 460.4166666666667 239.5833333333333 445.8333333333334S254.1666666666667 410.4166666666668 239.5833333333333 397.9166666666668L239.5833333333333 397.9166666666668L85.4166666666667 250L239.5833333333333 100.0000000000001C254.1666666666667 85.4166666666667 254.1666666666667 64.5833333333334 239.5833333333333 52.0833333333334S204.1666666666667 37.5000000000001 189.5833333333333 52.0833333333334L189.5833333333333 52.0833333333334z" />
    <glyph glyph-name="chevrons-right"
      unicode="&#xF139;"
      horiz-adv-x="500" d=" M260.4166666666667 45.8333333333334C245.8333333333334 60.4166666666667 245.8333333333334 81.25 260.4166666666667 95.8333333333333L414.5833333333333 250L260.4166666666667 404.1666666666667C245.8333333333333 418.75 245.8333333333333 439.5833333333333 260.4166666666667 454.1666666666666C275 468.7499999999999 295.8333333333333 468.7499999999999 310.4166666666667 454.1666666666666L489.5833333333333 275C504.1666666666666 260.4166666666667 504.1666666666666 239.5833333333334 489.5833333333333 225L310.4166666666667 45.8333333333334C295.8333333333333 31.25 275 31.25 260.4166666666667 45.8333333333334L260.4166666666667 45.8333333333334L260.4166666666667 45.8333333333334zM10.4166666666667 45.8333333333334C-4.1666666666667 60.4166666666667 -4.1666666666667 81.25 10.4166666666667 95.8333333333333L164.5833333333334 250L10.4166666666667 404.1666666666667C-4.1666666666667 418.75 -4.1666666666667 439.5833333333334 10.4166666666667 454.1666666666667S45.8333333333333 468.75 60.4166666666667 454.1666666666667L239.5833333333333 275C254.1666666666667 260.4166666666668 254.1666666666667 239.5833333333334 239.5833333333333 225.0000000000001L60.4166666666667 45.8333333333334C45.8333333333333 31.25 25 31.25 10.4166666666667 45.8333333333334L10.4166666666667 45.8333333333334L10.4166666666667 45.8333333333334z" />
    <glyph glyph-name="chevrons-up"
      unicode="&#xF13A;"
      horiz-adv-x="500" d=" M404.1666666666667 10.4166666666667L250 164.5833333333333L95.8333333333333 10.4166666666667C81.25 -4.1666666666666 60.4166666666667 -4.1666666666666 45.8333333333333 10.4166666666667C31.25 25 31.25 45.8333333333334 45.8333333333333 60.4166666666667L45.8333333333333 60.4166666666667L225 239.5833333333333C239.5833333333333 254.1666666666667 260.4166666666667 254.1666666666667 275 239.5833333333333L454.1666666666666 60.4166666666667C468.7499999999999 45.8333333333334 468.7499999999999 25 454.1666666666666 10.4166666666667C439.5833333333333 -4.1666666666666 418.75 -4.1666666666666 404.1666666666667 10.4166666666667L404.1666666666667 10.4166666666667L404.1666666666667 10.4166666666667zM404.1666666666667 260.4166666666667L250 414.5833333333334L95.8333333333333 260.4166666666667C81.25 245.8333333333334 60.4166666666667 245.8333333333334 45.8333333333333 260.4166666666667S31.25 295.8333333333334 45.8333333333333 310.4166666666667L225 489.5833333333333C239.5833333333333 504.1666666666667 260.4166666666667 504.1666666666667 275 489.5833333333333L454.1666666666666 310.4166666666667C468.7499999999999 295.8333333333334 468.7499999999999 275 454.1666666666666 260.4166666666667S418.75 245.8333333333334 404.1666666666667 260.4166666666667L404.1666666666667 260.4166666666667L404.1666666666667 260.4166666666667z" />
    <glyph glyph-name="chrome"
      unicode="&#xF13B;"
      horiz-adv-x="500" d=" M220.8333333333333 2.0833333333334H218.75C95.8333333333333 16.6666666666667 0 122.9166666666667 0 250C0 302.0833333333334 16.6666666666667 354.1666666666667 47.9166666666667 395.8333333333334L50 397.9166666666667C56.25 408.3333333333333 64.5833333333333 416.6666666666667 72.9166666666667 425C170.8333333333333 522.9166666666666 327.0833333333333 525 425 427.0833333333334S525 172.9166666666667 427.0833333333333 72.9166666666667L425 70.8333333333333C377.0833333333333 25 314.5833333333333 -2.0833333333333 247.9166666666667 -2.0833333333333C239.5833333333333 0 231.25 0 220.8333333333333 2.0833333333334zM262.5 45.8333333333334C375 52.0833333333334 458.3333333333333 150 452.0833333333333 262.5C450 281.25 447.9166666666667 297.9166666666667 441.6666666666667 316.6666666666667H339.5833333333333C366.6666666666667 281.25 368.7499999999999 229.1666666666667 345.8333333333333 189.5833333333334L262.5 45.8333333333334zM45.8333333333333 250C45.8333333333333 152.0833333333334 116.6666666666667 66.6666666666667 212.5 50L262.5 137.5C216.6666666666666 133.3333333333333 172.9166666666667 156.25 150 195.8333333333333L66.6666666666666 337.5C52.0833333333333 310.4166666666667 45.8333333333333 281.25 45.8333333333333 250zM181.25 250C181.25 239.5833333333334 183.3333333333333 227.0833333333334 187.5 218.75L189.5833333333333 216.6666666666667C189.5833333333333 216.6666666666667 189.5833333333333 216.6666666666667 189.5833333333333 214.5833333333334C210.4166666666667 183.3333333333334 250 170.8333333333334 281.25 191.6666666666667C289.5833333333333 195.8333333333334 297.9166666666667 206.25 304.1666666666667 212.5000000000001L306.25 214.5833333333334C306.25 214.5833333333334 306.25 214.5833333333334 306.25 216.6666666666667C325 250 312.5 291.6666666666667 279.1666666666667 310.4166666666667S208.3333333333333 314.5833333333334 189.5833333333333 281.25C183.3333333333334 270.8333333333334 181.25 260.4166666666667 181.25 250zM95.8333333333333 381.25L145.8333333333333 295.8333333333334C164.5833333333334 337.5 204.1666666666667 364.5833333333333 250 364.5833333333333H418.75C354.1666666666667 456.25 229.1666666666667 479.1666666666667 135.4166666666667 418.75C120.8333333333333 408.3333333333333 106.25 395.8333333333334 95.8333333333333 381.25z" />
    <glyph glyph-name="circle"
      unicode="&#xF13C;"
      horiz-adv-x="500" d=" M247.9166666666667 0C110.4166666666667 0 0 110.4166666666667 0 250C0 316.6666666666667 27.0833333333333 379.1666666666667 72.9166666666667 427.0833333333334C170.8333333333333 525 327.0833333333333 527.0833333333334 425 429.1666666666667S525 175 427.0833333333333 75.0000000000001L425 72.9166666666667C377.0833333333333 27.0833333333334 314.5833333333333 0 247.9166666666667 0zM247.9166666666667 452.0833333333334C135.4166666666667 452.0833333333334 43.75 362.5 43.75 247.9166666666667S133.3333333333333 43.75 247.9166666666667 43.75S452.0833333333334 133.3333333333333 452.0833333333334 247.9166666666667S362.5 452.0833333333334 247.9166666666667 452.0833333333334z" />
    <glyph glyph-name="clipboard"
      unicode="&#xF13D;"
      horiz-adv-x="500" d=" M375 0H125C89.5833333333333 0 62.5 29.1666666666667 62.5 68.7500000000001V385.4166666666667C62.5 425 89.5833333333333 454.1666666666667 125 454.1666666666667H145.8333333333333C145.8333333333333 479.1666666666667 164.5833333333334 500 187.5 500H312.5C335.4166666666667 500 354.1666666666667 479.1666666666667 354.1666666666667 454.1666666666667H375C410.4166666666667 454.1666666666667 437.5 425 437.5 385.4166666666667V66.6666666666667C437.5 29.1666666666667 410.4166666666667 0 375 0zM125 408.3333333333333C112.5 408.3333333333333 104.1666666666667 400 104.1666666666667 385.4166666666667V66.6666666666667C104.1666666666667 52.0833333333334 112.5 43.75 125 43.75H375C387.5 43.75 395.8333333333333 52.0833333333333 395.8333333333333 66.6666666666667V385.4166666666667C395.8333333333333 400 387.5 408.3333333333333 375 408.3333333333333H354.1666666666667C354.1666666666667 383.3333333333333 335.4166666666667 362.5 312.5 362.5H187.5C164.5833333333334 362.5 145.8333333333333 383.3333333333333 145.8333333333333 408.3333333333333H125zM187.5 454.1666666666667V408.3333333333333H312.5V454.1666666666667H187.5z" />
    <glyph glyph-name="clock"
      unicode="&#xF13E;"
      horiz-adv-x="500" d=" M73.25 73.234375C-25.390625 170.890625 -25.390625 329.09375 71.296875 426.75C167 525.390625 325.203125 527.34375 422.859375 428.703125L424.8125 426.75C522.46875 329.09375 525.40625 174.796875 426.765625 75.1875C329.109375 -25.40625 174.8125 -22.46875 75.203125 71.28125C75.203125 73.234375 75.203125 73.234375 73.25 73.234375zM45.90625 250C45.90625 137.6875 135.75 45.8906249999999 250.0156250000001 45.8906249999999S454.125 135.734375 454.125 250C454.125 364.265625 362.328125 454.109375 250.015625 454.109375S45.90625 362.3125 45.90625 250zM301.765625 166.984375L233.40625 235.34375C229.5 239.25 227.546875 244.140625 227.546875 251.9531250000001V385.7500000000001C227.546875 400.40625 235.359375 408.21875 250.015625 408.21875S272.484375 400.40625 272.484375 385.7500000000001V258.796875L333.03125 198.2500000000001C341.828125 189.4531250000001 341.828125 174.8125000000001 333.03125 167.0000000000001C325.21875 158.2031250000001 310.5625 158.2031250000001 301.78125 167.0000000000001z" />
    <glyph glyph-name="cloud-drizzle"
      unicode="&#xF13F;"
      horiz-adv-x="500" d=" M229.1666666666667 20.8333333333334V62.5C229.1666666666667 75.0000000000001 237.5 83.3333333333334 250 83.3333333333334S270.8333333333333 75.0000000000001 270.8333333333333 62.5V20.8333333333334C270.8333333333333 8.3333333333333 262.5 0 250 0S229.1666666666667 8.3333333333333 229.1666666666667 20.8333333333334zM312.5 62.5V104.1666666666667C312.5 116.6666666666668 320.8333333333333 125 333.3333333333333 125C345.8333333333334 125 354.1666666666667 116.6666666666668 354.1666666666667 104.1666666666667V62.5C354.1666666666667 50 345.8333333333334 41.6666666666667 333.3333333333333 41.6666666666667C322.9166666666667 41.6666666666667 312.5 50 312.5 62.5zM145.8333333333333 62.5V104.1666666666667C145.8333333333333 116.6666666666668 154.1666666666667 125 166.6666666666667 125S187.5 116.6666666666668 187.5 104.1666666666667V62.5C187.5 50 179.1666666666667 41.6666666666667 166.6666666666667 41.6666666666667S145.8333333333333 50 145.8333333333333 62.5zM229.1666666666667 145.8333333333334V187.5C229.1666666666667 200 237.5 208.3333333333334 250 208.3333333333334S270.8333333333333 200 270.8333333333333 187.5V145.8333333333334C270.8333333333333 133.3333333333333 262.5 125 250 125S229.1666666666667 133.3333333333333 229.1666666666667 145.8333333333334zM397.9166666666667 145.8333333333334C393.75 156.25 397.9166666666667 168.75 408.3333333333333 172.9166666666667L408.3333333333333 172.9166666666667C450 191.6666666666667 468.75 239.5833333333334 452.0833333333334 283.3333333333334C437.5 314.5833333333334 408.3333333333333 333.3333333333334 375 333.3333333333334H347.9166666666667C337.5 333.3333333333334 329.1666666666667 339.5833333333334 327.0833333333333 350C306.25 427.0833333333334 227.0833333333333 475 150 454.1666666666667S25 354.1666666666667 45.8333333333333 277.0833333333334C54.1666666666667 245.8333333333334 70.8333333333333 218.75 95.8333333333333 200.0000000000001C104.1666666666667 193.7500000000001 106.25 179.1666666666668 100 170.8333333333334C93.75 162.5000000000001 79.1666666666667 160.4166666666668 70.8333333333333 166.6666666666668L70.8333333333333 166.6666666666668C-10.4166666666667 231.25 -22.9166666666667 347.9166666666667 41.6666666666667 429.1666666666667S222.9166666666666 522.9166666666666 304.1666666666667 458.3333333333333C331.25 437.5 352.0833333333333 408.3333333333333 364.5833333333333 375H375C443.75 375 500 318.75 500 250C500 200 470.8333333333333 156.25 425 135.4166666666667C414.5833333333333 131.2500000000001 402.0833333333333 135.4166666666667 397.9166666666667 145.8333333333334L397.9166666666667 145.8333333333334zM312.5 187.5V229.1666666666667C312.5 241.6666666666667 320.8333333333333 250 333.3333333333333 250C345.8333333333334 250 354.1666666666667 241.6666666666667 354.1666666666667 229.1666666666667V187.5C354.1666666666667 175 345.8333333333334 166.6666666666667 333.3333333333333 166.6666666666667C322.9166666666667 166.6666666666667 312.5 175 312.5 187.5zM145.8333333333333 187.5V229.1666666666667C145.8333333333333 241.6666666666667 154.1666666666667 250 166.6666666666667 250S187.5 241.6666666666667 187.5 229.1666666666667V187.5C187.5 175 179.1666666666667 166.6666666666667 166.6666666666667 166.6666666666667S145.8333333333333 175 145.8333333333333 187.5z" />
    <glyph glyph-name="cloud-off"
      unicode="&#xF140;"
      horiz-adv-x="500" d=" M464.5833333333333 6.2500000000001L404.1666666666667 66.6666666666667C395.8333333333333 64.5833333333334 385.4166666666667 62.5 375 62.5H185.4166666666667C81.25 62.5 -2.0833333333333 147.9166666666668 0 252.0833333333334C0 310.4166666666667 27.0833333333333 364.5833333333334 72.9166666666667 400L8.3333333333333 464.5833333333333C0 472.9166666666667 0 485.4166666666667 8.3333333333333 493.75L8.3333333333333 493.75C16.6666666666667 502.0833333333333 29.1666666666667 502.0833333333333 37.5 493.75L37.5 493.75L493.7499999999999 35.4166666666667C502.0833333333333 27.0833333333334 502.0833333333333 14.5833333333334 493.7499999999999 6.2500000000001C485.4166666666666 -2.0833333333333 472.9166666666666 -2.0833333333333 464.5833333333333 6.2500000000001L464.5833333333333 6.2500000000001L464.5833333333333 6.2500000000001zM45.8333333333333 212.5C62.5 147.9166666666668 120.8333333333333 104.1666666666667 187.5 104.1666666666667H368.75L104.1666666666667 368.75C54.1666666666667 333.3333333333334 31.25 270.8333333333334 45.8333333333333 212.5zM462.4999999999999 127.0833333333334C452.0833333333333 131.2500000000001 447.9166666666667 143.7500000000001 452.0833333333333 154.1666666666668C462.4999999999999 179.1666666666668 460.4166666666666 210.4166666666667 445.8333333333333 233.3333333333335C431.25 256.2500000000001 404.1666666666667 270.8333333333335 377.0833333333333 270.8333333333335H350C339.5833333333333 270.8333333333335 331.2499999999999 277.0833333333335 329.1666666666666 287.5000000000001C314.5833333333333 347.9166666666668 262.5 391.6666666666668 202.0833333333333 395.8333333333335C189.5833333333333 395.8333333333335 181.25 406.2500000000001 181.25 416.6666666666668S191.6666666666666 437.5000000000001 202.0833333333333 437.5000000000001H204.1666666666666C277.0833333333333 431.2500000000001 339.5833333333333 381.2500000000001 364.5833333333333 312.5000000000001H375C416.6666666666667 312.5000000000001 456.2499999999999 291.6666666666668 479.1666666666666 256.2500000000001S506.25 177.0833333333334 489.5833333333333 137.5000000000001C485.4166666666666 129.1666666666667 479.1666666666666 125 470.8333333333333 125C468.75 127.0833333333334 464.5833333333333 127.0833333333334 462.4999999999999 127.0833333333334L462.4999999999999 127.0833333333334z" />
    <glyph glyph-name="cloud-rain"
      unicode="&#xF141;"
      horiz-adv-x="500" d=" M229.1666666666667 20.8333333333334V187.5C229.1666666666667 200 237.5 208.3333333333334 250 208.3333333333334S270.8333333333333 200 270.8333333333333 187.5V20.8333333333334C270.8333333333333 8.3333333333333 262.5 0 250 0S229.1666666666667 8.3333333333333 229.1666666666667 20.8333333333334zM312.5 62.5V229.1666666666667C312.5 241.6666666666667 320.8333333333333 250 333.3333333333333 250C345.8333333333334 250 354.1666666666667 241.6666666666667 354.1666666666667 229.1666666666667V62.5C354.1666666666667 50 345.8333333333334 41.6666666666667 333.3333333333333 41.6666666666667C322.9166666666667 41.6666666666667 312.5 50 312.5 62.5zM145.8333333333333 62.5V229.1666666666667C145.8333333333333 241.6666666666667 154.1666666666667 250 166.6666666666667 250C179.1666666666667 250 187.5 241.6666666666667 187.5 229.1666666666667V62.5C187.5 50 179.1666666666667 41.6666666666667 166.6666666666667 41.6666666666667S145.8333333333333 50 145.8333333333333 62.5zM397.9166666666667 145.8333333333334C393.75 156.25 397.9166666666667 168.75 408.3333333333333 172.9166666666667L408.3333333333333 172.9166666666667C450 191.6666666666667 468.75 239.5833333333334 452.0833333333334 283.3333333333334C437.5 314.5833333333334 408.3333333333333 333.3333333333334 375 333.3333333333334H347.9166666666667C337.5 333.3333333333334 329.1666666666667 339.5833333333334 327.0833333333333 350C306.25 427.0833333333334 227.0833333333333 475 150 454.1666666666667S25 354.1666666666667 45.8333333333333 277.0833333333334C54.1666666666667 245.8333333333334 70.8333333333333 218.75 95.8333333333333 200.0000000000001C104.1666666666667 193.7500000000001 106.25 179.1666666666668 100 170.8333333333334C93.75 162.5000000000001 79.1666666666667 160.4166666666668 70.8333333333333 166.6666666666668L70.8333333333333 166.6666666666668C-10.4166666666667 231.25 -22.9166666666667 347.9166666666667 41.6666666666667 429.1666666666667S222.9166666666666 522.9166666666666 304.1666666666667 458.3333333333333C331.25 437.5 352.0833333333333 408.3333333333333 364.5833333333333 375H375C443.75 375 500 318.75 500 250C500 200 470.8333333333333 156.25 425 135.4166666666667C414.5833333333333 131.2500000000001 402.0833333333333 135.4166666666667 397.9166666666667 145.8333333333334L397.9166666666667 145.8333333333334z" />
    <glyph glyph-name="cloud-snow"
      unicode="&#xF142;"
      horiz-adv-x="500" d=" M320.8333333333333 31.25V72.9166666666667C320.8333333333333 85.4166666666667 329.1666666666667 93.75 341.6666666666667 93.75C354.1666666666667 93.75 362.5 85.4166666666667 362.5 72.9166666666667V31.25C362.5 18.75 354.1666666666667 10.4166666666667 341.6666666666667 10.4166666666667C331.25 10.4166666666667 320.8333333333333 18.75 320.8333333333333 31.25zM154.1666666666667 31.25V72.9166666666667C154.1666666666667 85.4166666666667 162.5 93.75 175 93.75S195.8333333333334 85.4166666666667 195.8333333333334 72.9166666666667V31.25C195.8333333333334 18.75 187.5 10.4166666666667 175 10.4166666666667S154.1666666666667 18.75 154.1666666666667 31.25zM237.5 70.8333333333333V112.5C237.5 125 245.8333333333334 133.3333333333333 258.3333333333333 133.3333333333333S279.1666666666667 125 279.1666666666667 112.5V70.8333333333333C279.1666666666667 58.3333333333333 270.8333333333333 50 258.3333333333333 50C245.8333333333334 50 237.5 60.4166666666667 237.5 70.8333333333333zM320.8333333333333 135.4166666666667V177.0833333333334C320.8333333333333 189.5833333333334 329.1666666666667 197.9166666666667 341.6666666666667 197.9166666666667C354.1666666666667 197.9166666666667 362.5 189.5833333333334 362.5 177.0833333333334V135.4166666666667C362.5 122.9166666666667 354.1666666666667 114.5833333333334 341.6666666666667 114.5833333333334C331.25 112.5 320.8333333333333 120.8333333333334 320.8333333333333 135.4166666666667zM154.1666666666667 135.4166666666667V177.0833333333334C154.1666666666667 189.5833333333334 162.5 197.9166666666667 175 197.9166666666667S195.8333333333334 189.5833333333334 195.8333333333334 177.0833333333334V135.4166666666667C195.8333333333334 122.9166666666667 187.5 114.5833333333334 175 114.5833333333334S154.1666666666667 120.8333333333334 154.1666666666667 135.4166666666667zM400 143.75C395.8333333333333 154.1666666666666 400 166.6666666666667 410.4166666666667 170.8333333333333L410.4166666666667 170.8333333333333C445.8333333333333 185.4166666666666 466.6666666666666 225 458.3333333333333 262.5S416.6666666666667 329.1666666666667 375 329.1666666666667H347.9166666666667C337.5 329.1666666666667 331.25 335.4166666666667 327.0833333333333 343.75C312.5 404.1666666666667 258.3333333333333 447.9166666666667 195.8333333333333 450C133.3333333333333 454.1666666666667 75 416.6666666666667 52.0833333333333 358.3333333333334S47.9166666666666 231.2500000000001 97.9166666666666 195.8333333333334C106.25 189.5833333333334 108.3333333333333 177.0833333333334 102.0833333333333 166.6666666666667L102.0833333333333 166.6666666666667C93.75 158.3333333333334 81.25 156.25 72.9166666666666 162.5000000000001C8.3333333333333 212.5000000000001 -16.6666666666667 295.8333333333334 12.5 370.8333333333334C39.5833333333333 447.9166666666667 114.5833333333333 497.9166666666667 195.8333333333333 491.6666666666667C270.8333333333333 487.5 335.4166666666667 439.5833333333334 362.5 366.6666666666667H372.9166666666667C431.25 366.6666666666667 483.3333333333333 327.0833333333334 495.8333333333333 268.75C508.3333333333333 212.5 477.0833333333333 154.1666666666666 422.9166666666666 131.2500000000001C420.8333333333332 129.1666666666667 416.6666666666666 129.1666666666667 414.5833333333333 129.1666666666667C410.4166666666667 131.2500000000001 404.1666666666667 137.5000000000001 400 143.75z" />
    <glyph glyph-name="cloud"
      unicode="&#xF143;"
      horiz-adv-x="500" d=" M375 62.5H187.5C83.3333333333333 62.5 0 145.8333333333334 0 250C0 341.6666666666667 66.6666666666667 418.75 156.25 435.4166666666667S333.3333333333333 400 364.5833333333333 312.5H375C443.75 312.5 500 256.25 500 187.5S443.75 62.5 375 62.5zM187.5 395.8333333333334L187.5 395.8333333333334C106.25 395.8333333333334 41.6666666666667 331.25 41.6666666666667 250S106.25 104.1666666666667 187.5 104.1666666666667H375C420.8333333333333 104.1666666666667 458.3333333333333 141.6666666666667 458.3333333333333 187.5S420.8333333333333 270.8333333333334 375 270.8333333333334H347.9166666666667C337.5 270.8333333333334 329.1666666666667 277.0833333333334 327.0833333333333 287.5C312.5 350 254.1666666666667 395.8333333333334 187.5 395.8333333333334z" />
    </font>
</defs>
</svg>
